<?xml version="1.0" standalone="no"?>
<!DOCTYPE svg PUBLIC "-//W3C//DTD SVG 1.1//EN" "http://www.w3.org/Graphics/SVG/1.1/DTD/svg11.dtd" >
<svg xmlns="http://www.w3.org/2000/svg" xmlns:xlink="http://www.w3.org/1999/xlink" version="1.1">
<metadata>
Created by FontForge 20201107 at Thu Aug 27 10:25:42 2015
 By www-data
Copyright(c) Beijing Founder Electronics Co.,Ltd.2015
</metadata>
<defs>
<font id="FZKTJW--GB1-0" horiz-adv-x="256" vert-adv-y="256" >
  <font-face 
    font-family="FZKai-Z03S"
    font-weight="400"
    font-stretch="normal"
    units-per-em="256"
    panose-1="2 0 0 0 0 0 0 0 0 0"
    ascent="204"
    descent="-52"
    x-height="116"
    cap-height="166"
    bbox="-26.5 -58 256.125 221"
    underline-thickness="12"
    underline-position="-52"
    unicode-range="U+0020-FFE5"
  />
<missing-glyph 
 />
    <glyph glyph-name=".notdef" 
 />
    <glyph glyph-name="space" unicode=" " horiz-adv-x="71" 
 />
    <glyph glyph-name="exclam" unicode="!" horiz-adv-x="66" 
d="M21 20q1 11 12 12q11 -1 12 -12q0 -10 -12 -10q-11 1 -12 10zM22 180q16 -2 19 -9v-9q-1 -7 -1 -15q1 -23 -1 -63q0 2 0 -4q-1 -23 -7 -26q-5 -1 -5 18q-1 27 -3 75q-2 24 -6 30q0 3 4 3z" />
    <glyph glyph-name="quotedbl" unicode="&#x22;" horiz-adv-x="103" 
d="M39 168q3 -7 -3 -56q-1 -7 -4 -7q-4 0 -5 7q-8 51 -6 56q9 11 18 0zM82 168q2 -7 -3 -56q-1 -6 -4 -7q-3 1 -5 7q-8 50 -5 57q8 9 17 -1z" />
    <glyph glyph-name="numbersign" unicode="#" horiz-adv-x="170" 
d="M136 69q17 -4 22 -10q4 -8 -8 -8h-33q-5 -21 -5 -30q-6 -24 -11 -24q-11 7 -9 22q1 4 5 16q3 10 5 16q-25 0 -44 -3q-2 -8 -4 -19q-1 -6 -1 -7q-4 -23 -11 -25q-10 10 -8 23q3 7 8 26q-9 0 -17 -2q-9 3 -12 8q-2 4 6 4h11q9 1 14 1q6 26 11 53q-7 -1 -19 -3q-7 -1 -10 -1
q-8 2 -13 8q-2 3 6 4q10 0 35 2q-18 -2 3 0q1 5 2 14q2 11 3 16q0 5 -2 11q0 1 -1 3q-2 8 0 9q15 -3 23 -16q0 -3 -3 -9q-2 -3 -4 -11q-1 -5 -3 -16q16 1 45 5q2 13 3 23q1 2 0 6t-1 6q-4 9 -1 11q13 -1 22 -15q0 -5 -3 -9q0 -1 -1 -3q-2 -5 -3 -9q0 -2 -1 -7q2 1 4 1
q18 -4 22 -10q5 -7 -8 -7h-21q-6 -27 -10 -47q9 2 17 3zM70 112q-5 -29 -11 -54l24 3q14 1 22 2q1 7 4 21l6 30q-8 0 -23 -1q-15 0 -22 -1z" />
    <glyph glyph-name="dollar" unicode="$" horiz-adv-x="116" 
d="M43 183q12 1 24 -10q1 -2 0 -7q-1 -1 -1 -2v-1q-1 -2 -1 -3q25 -2 39 -18q4 -4 -5 -6q-12 -2 -16 2q-6 10 -19 11v-19q1 -25 1 -39q43 -10 42 -43q-1 -35 -41 -40q-1 -22 -7 -24q-11 5 -12 20q1 1 1 4q-18 2 -33 14q-8 8 -7 11q2 3 10 -4q14 -9 31 -10q2 32 2 61
q-39 6 -40 40q1 34 38 40v4q0 3 -2 7q-1 2 -1 3q-4 8 -3 9zM92 48q0 22 -27 29q0 -12 1 -34v-23q26 6 26 28zM24 121q0 -23 27 -27q0 37 -1 55q-24 -5 -26 -28z" />
    <glyph glyph-name="percent" unicode="%" horiz-adv-x="183" 
d="M6 133q3 40 33 43q30 -4 33 -43q-3 -40 -33 -44q-31 3 -33 44zM21 133q0 -32 18 -32q17 0 17 32q0 31 -17 31q-18 1 -18 -31zM143 182q10 -4 10 -23q-3 -4 -6 -7l-2 -2q-4 -3 -7 -7q-6 -7 -58 -74q-30 -39 -36 -46q-12 -16 -19 -17q-6 13 1 22q29 26 107 133l3 6q1 3 2 4
q2 9 5 11zM112 54q2 41 33 44q31 -3 33 -44q-3 -40 -33 -43q-30 3 -33 43zM127 54q1 -30 18 -32q18 1 18 32q0 32 -18 32q-18 1 -18 -32z" />
    <glyph glyph-name="ampersand" unicode="&#x26;" horiz-adv-x="186" 
d="M78 100q36 13 36 33q-2 17 -27 18q-29 -1 -30 -18q-1 -19 21 -33zM140 38q9 -9 15 -13q12 -8 21 -9q6 -2 7 -5q1 -2 -5 -2q-33 -2 -36 4q-2 2 -4 5q-5 7 -10 11q-28 -21 -63 -20q-52 2 -54 37q-2 32 51 48q-20 20 -19 36q2 31 43 32q37 -2 41 -29q2 -27 -40 -44
q28 -28 42 -41q15 13 24 28q5 8 5 13q-2 12 3 11q7 0 12 -13q2 -11 -4 -18q-14 -17 -29 -31zM72 85q-47 -15 -47 -35q-1 -33 47 -31q26 4 46 20z" />
    <glyph glyph-name="quotesingle" unicode="'" horiz-adv-x="45" 
d="M31 168q3 -7 -4 -56q-1 -7 -4 -7t-4 7q-7 49 -6 56q8 11 18 0z" />
    <glyph glyph-name="parenleft" unicode="(" horiz-adv-x="77" 
d="M70 -13q5 -6 3 -9q-3 -2 -8 2q-45 41 -43 106q-1 64 43 108q6 7 9 4q2 -4 -4 -11q-36 -42 -34 -101q-2 -61 34 -99z" />
    <glyph glyph-name="parenright" unicode=")" horiz-adv-x="77" 
d="M6 191q-3 5 -2 8q2 2 7 -3q45 -42 44 -109q0 -69 -45 -110q-4 -3 -6 0q-2 2 1 6q36 36 37 104q-1 62 -36 104z" />
    <glyph glyph-name="asterisk" unicode="*" horiz-adv-x="130" 
d="M56 174q0 7 9 8q9 -1 9 -8q0 -17 -3 -41q20 13 39 22q6 4 10 -3q3 -6 -3 -10q-14 -6 -38 -16q1 1 -4 -1q23 -8 40 -16q7 -4 4 -11q-4 -6 -11 -3q-4 2 -12 7q-15 8 -24 14q3 -16 5 -39q-9 -15 -19 0q1 11 3 39q-17 -11 -39 -23q-7 -2 -11 4q-3 7 4 11q9 4 25 10q10 4 17 7
q-25 9 -43 17q-7 3 -4 10q5 7 11 4q25 -12 39 -23q0 6 -2 18q-1 14 -2 23z" />
    <glyph glyph-name="plus" unicode="+" horiz-adv-x="170" 
d="M93 98h54q5 0 5 -6t-5 -6h-54v-58q-6 -9 -12 0v58h-59q-9 6 0 12h59v56q0 5 6 5t6 -5v-56z" />
    <glyph glyph-name="comma" unicode="," horiz-adv-x="66" 
d="M25 -15q-4 -1 -4 0q0 2 3 5q11 8 12 20q-2 -1 -6 -1q-11 1 -11 13q2 11 14 12q14 0 14 -18q-1 -23 -22 -31z" />
    <glyph glyph-name="hyphen" unicode="-" horiz-adv-x="170" 
d="M22 97h125q5 0 5 -5q0 -6 -5 -6h-125q-4 0 -4 6q0 5 4 5z" />
    <glyph glyph-name="period" unicode="." horiz-adv-x="66" 
d="M33 34q12 -1 13 -13q-1 -11 -13 -12q-13 1 -14 12q1 12 14 13z" />
    <glyph glyph-name="slash" unicode="/" horiz-adv-x="116" 
d="M103 171l-77 -159q-9 -6 -13 0l77 159q11 9 13 0z" />
    <glyph glyph-name="zero" unicode="0" horiz-adv-x="124" 
d="M116 92q-2 -83 -54 -83q-50 4 -53 83q3 82 53 84q53 -2 54 -84zM101 92q2 74 -39 72q-39 1 -38 -72q1 -68 39 -72q38 0 38 72z" />
    <glyph glyph-name="one" unicode="1" horiz-adv-x="124" 
d="M49 177q14 0 25 -11q2 -3 -1 -10q-1 -3 -1 -12q0 -13 1 -54q1 -40 1 -52q0 -26 -7 -28q-11 5 -13 20q7 36 2 119q-9 -6 -17 -14q-8 -2 -16 2q-4 3 3 7q14 6 29 17q0 1 -1 3q0 2 -1 3t-2 3q-3 6 -2 7z" />
    <glyph glyph-name="two" unicode="2" horiz-adv-x="124" 
d="M92 35q17 -4 22 -9q4 -8 -7 -8q-42 3 -79 -7q-26 4 -15 20q77 63 79 96q0 37 -32 39q-28 -3 -32 -35q-1 -7 -8 -11q-8 -2 -8 5q4 50 50 51q42 -3 45 -46q3 -36 -80 -107q27 3 65 12z" />
    <glyph glyph-name="three" unicode="3" horiz-adv-x="124" 
d="M39 85q-6 0 -8 8q-1 7 6 8q48 7 49 34q2 32 -30 30q-23 -1 -29 -26q-11 -20 -18 -6q5 41 48 42q43 -1 43 -41q-1 -25 -27 -35q40 -4 36 -47q-7 -43 -58 -43q-22 1 -38 14q-8 8 -7 11q2 3 11 -3q16 -10 34 -10q38 0 44 30q6 46 -56 34z" />
    <glyph glyph-name="four" unicode="4" horiz-adv-x="124" 
d="M92 58v-21q0 -25 -6 -28q-11 5 -13 20q3 13 4 28q-14 0 -39 -4q-10 -2 -16 -3q-10 -1 -13 6q-2 7 5 15q39 50 58 105q14 1 21 -11q0 -4 -1 -8q-2 -4 -2 -14q0 -12 1 -35q0 -24 1 -35q15 -3 19 -8q3 -7 -8 -8q-5 1 -11 1zM28 63q9 1 27 5q14 2 22 4q1 29 -2 72
q-28 -55 -47 -81z" />
    <glyph glyph-name="five" unicode="5" horiz-adv-x="124" 
d="M21 90q-12 1 -9 16q13 12 8 48q-1 6 -4 11q0 1 -1 2q-3 5 -2 7q7 3 24 -9q11 2 23 5q21 6 31 6q11 0 15 -5t-6 -7q-2 0 -6 -1q-34 -7 -56 -7q0 -1 -1 -4q0 -3 -1 -4q0 -3 -1 -8q-2 -19 0 -33q75 13 74 -50q-7 -48 -58 -48q-23 1 -40 16q-7 7 -6 10q2 3 9 -2
q17 -12 37 -12q37 1 44 37q-3 61 -74 32z" />
    <glyph glyph-name="six" unicode="6" horiz-adv-x="124" 
d="M98 175q10 0 6 -9q-5 -10 -15 -10q-51 1 -63 -64q16 16 44 16q42 -5 45 -48q-3 -49 -50 -51q-53 0 -54 67q4 90 87 99zM101 59q-2 36 -33 39q-22 0 -40 -21q-5 -55 37 -57q34 3 36 39z" />
    <glyph glyph-name="seven" unicode="7" horiz-adv-x="124" 
d="M83 177q26 -8 29 -21q-12 -12 -27 -62q-3 -8 -6 -20q-9 -26 -14 -41q-9 -24 -14 -24q-10 8 -7 23q43 95 39 128q-4 2 -21 -2q-21 -6 -39 -10q-16 3 -13 12q45 3 73 17z" />
    <glyph glyph-name="eight" unicode="8" horiz-adv-x="124" 
d="M108 139q3 -27 -28 -40q33 -16 33 -43q-2 -45 -51 -47q-46 3 -49 42q-1 30 34 47q-34 14 -32 36q2 38 46 42q40 -2 47 -37zM98 49q3 29 -36 41q-35 -12 -35 -35q1 -33 36 -35q31 2 35 29zM93 136q-2 28 -33 30q-29 -2 -32 -27q-2 -22 35 -33q31 10 30 30z" />
    <glyph glyph-name="nine" unicode="9" horiz-adv-x="124" 
d="M24 126q2 -35 34 -39q21 0 39 21q6 54 -37 58q-34 -3 -36 -40zM32 10q-11 -1 -12 3q1 3 11 5q57 13 67 74q-17 -15 -41 -15q-44 4 -47 48q4 49 51 51q52 -1 53 -68q-5 -86 -82 -98z" />
    <glyph glyph-name="colon" unicode=":" horiz-adv-x="66" 
d="M33 34q12 -1 13 -13q-1 -11 -13 -12q-13 1 -14 12q1 12 14 13zM33 116q14 0 14 -12q-1 -12 -14 -13q-12 1 -13 13q1 11 13 12z" />
    <glyph glyph-name="semicolon" unicode=";" horiz-adv-x="66" 
d="M33 116q14 0 14 -12q-1 -12 -14 -13q-12 1 -13 13q1 11 13 12zM25 -15q-4 -1 -4 0q0 2 3 5q11 8 12 20q-2 -1 -6 -1q-11 1 -11 13q2 11 14 12q14 0 14 -18q-1 -23 -22 -31z" />
    <glyph glyph-name="less" unicode="&#x3c;" horiz-adv-x="170" 
d="M22 99l121 51q6 2 9 -3q1 -5 -4 -8l-107 -45q-3 -1 -3 -2q-1 -1 3 -3l107 -44q5 -3 4 -8q-3 -6 -9 -3l-121 51q-9 7 0 14z" />
    <glyph glyph-name="equal" unicode="=" horiz-adv-x="170" 
d="M22 120h125q5 0 5 -5q0 -6 -5 -6h-125q-4 0 -4 6q0 5 4 5zM21 74h126q5 0 5 -6t-5 -6h-126q-7 6 0 12z" />
    <glyph glyph-name="greater" unicode="&#x3e;" horiz-adv-x="170" 
d="M147 85l-121 -51q-6 -3 -8 3q-2 5 4 8l104 43q6 2 6 4q0 1 -6 3l-105 45q-6 2 -3 7t9 3l120 -51q11 -7 0 -14z" />
    <glyph glyph-name="question" unicode="?" horiz-adv-x="90" 
d="M46 106q18 8 19 27q0 31 -21 30q-9 -1 -13 -15q-16 -15 -19 -3q5 27 30 30q39 2 37 -42q-1 -27 -19 -36q-12 -6 -11 -19q2 -28 -5 -27q-13 6 -13 19q2 6 2 15q-1 14 13 21zM29 21q1 11 13 12q11 -1 12 -12q-1 -10 -12 -11q-12 1 -13 11z" />
    <glyph glyph-name="at" unicode="@" horiz-adv-x="234" 
d="M175 137q-9 -22 -21 -54l-3 -9q-11 -31 6 -31q47 15 50 81q-5 69 -76 73q-100 -8 -106 -114q6 -91 97 -94q65 1 98 50q5 6 8 4q3 -3 -1 -10q-33 -57 -107 -57q-103 5 -108 110q7 114 118 122q86 -5 91 -86q-8 -87 -70 -93q-19 3 -19 26q-22 -23 -47 -21q-22 4 -25 30
q2 72 61 86q24 1 33 -16q3 6 3 16q17 3 18 -13zM125 138q-47 -10 -50 -71q2 -18 14 -20q49 7 56 69q1 22 -20 22z" />
    <glyph glyph-name="A" unicode="A" horiz-adv-x="173" 
d="M30 35q-9 -24 -15 -23q-9 10 -5 24q39 68 61 137q9 6 23 -1q3 -2 3 -7q0 -1 1 -3q1 -6 3 -11q12 -29 49 -110q9 -22 4 -27q-11 -1 -19 13q-3 15 -12 38q-24 0 -81 -5l-6 -12q-4 -9 -6 -13zM47 73q16 -1 51 2q14 1 20 1q-12 32 -35 79q-22 -46 -36 -82z" />
    <glyph glyph-name="B" unicode="B" horiz-adv-x="162" 
d="M47 19q-3 -12 -7 -11q-6 2 -6 14v22q-2 112 -10 124q-12 15 24 3q54 8 74 -3q18 -9 18 -32q-1 -25 -26 -33q34 -6 35 -37q2 -49 -102 -47zM47 90v-59q84 -3 84 34q4 39 -84 25zM47 159v-54q80 0 77 33q0 37 -77 21z" />
    <glyph glyph-name="C" unicode="C" horiz-adv-x="186" 
d="M144 148q-12 15 -37 15q-70 -2 -78 -69q2 -66 75 -72q37 0 61 28q8 8 12 4q2 -4 -6 -14q-26 -32 -68 -31q-84 5 -90 81q6 82 92 86q40 1 62 -20q5 -4 -6 -9q-12 -4 -17 1z" />
    <glyph glyph-name="D" unicode="D" horiz-adv-x="194" 
d="M45 161v-126q119 -2 119 69q4 76 -119 57zM45 21q-2 -11 -6 -10q-6 2 -7 14q-1 10 -1 39q-2 97 -9 107q-12 14 25 2q139 18 133 -70q0 -84 -135 -82z" />
    <glyph glyph-name="E" unicode="E" horiz-adv-x="151" 
d="M122 162q-40 3 -74 -6v-21q-1 -24 -1 -37q15 1 53 11q18 -3 22 -8q4 -7 -8 -9q-40 2 -68 -5v-58q48 10 76 10q11 -2 17 -11q3 -8 -8 -7q-39 5 -81 -2q-9 -2 -13 -5q-3 -3 -7 -4q-8 6 -8 15q0 1 4 8q5 4 6 16q2 37 0 78q-2 34 -7 41q-10 17 24 -1q5 1 14 3q24 4 45 8
q17 -3 22 -8q4 -7 -8 -8z" />
    <glyph glyph-name="F" unicode="F" horiz-adv-x="135" 
d="M22 175q9 2 23 -9l18 3q5 1 8 2q13 4 32 7q17 -3 22 -8q4 -7 -8 -8q-36 3 -72 -7v-4q-1 -5 -1 -9v-16q1 -18 1 -28q15 0 54 11q17 -3 22 -8q4 -7 -8 -9q-40 2 -68 -5q1 -20 1 -50q0 -26 -7 -28q-12 7 -13 20q8 38 2 126q0 2 -2 7q-1 2 -1 3l-2 4q-3 5 -1 6z" />
    <glyph glyph-name="G" unicode="G" horiz-adv-x="188" 
d="M163 96q16 -4 20 -10q4 -7 -7 -8q-7 1 -13 1q-1 -11 0 -28v-12q3 -19 -15 -23q-20 -7 -49 -7q-80 4 -84 80q5 82 92 87q40 1 62 -20q5 -4 -6 -8q-12 -4 -17 0q-12 16 -38 16q-71 -3 -79 -70q0 -68 72 -73q31 0 46 12q2 26 0 46q-19 -1 -40 -6q-8 3 -12 9q-2 4 6 4
q25 -2 62 10z" />
    <glyph glyph-name="H" unicode="H" horiz-adv-x="202" 
d="M150 174q14 1 24 -10q2 -4 0 -8t-2 -14q2 -46 2 -105q0 -25 -7 -26q-11 5 -13 19q4 21 4 63q-56 2 -114 -7q1 -19 1 -50q0 -25 -7 -26q-11 5 -13 19q7 37 2 123q0 3 -2 7q-1 3 -1 4q-1 1 -2 3q-3 5 -1 6q12 1 24 -10q1 -3 0 -8q-1 -1 -1 -2v-4q-1 -5 -1 -8v-16
q1 -16 1 -24q64 2 114 9q0 22 -2 46q0 2 -2 7q-1 2 -1 3t-1 3q-4 5 -2 6z" />
    <glyph glyph-name="I" unicode="I" horiz-adv-x="84" 
d="M26 174q12 1 24 -10q1 -2 0 -6v-4q-2 -6 -2 -12q2 -53 2 -104q0 -26 -7 -28q-12 7 -13 20q8 35 3 124q0 3 -3 8q-1 2 -1 3q-1 1 -2 3q-3 5 -1 6z" />
    <glyph glyph-name="J" unicode="J" horiz-adv-x="77" 
d="M34 -8q-10 -16 -30 -17q-14 0 -26 10q-6 6 -4 9q1 2 8 -2q27 -14 41 11q17 22 11 149q0 7 -4 13q0 1 -1 2q-3 5 -2 7q13 1 25 -10q1 -2 0 -6v-3q-2 -4 -2 -13q1 -76 -2 -103q-3 -28 -14 -47z" />
    <glyph glyph-name="K" unicode="K" horiz-adv-x="178" 
d="M143 170q20 -17 13 -20q-3 -2 -20 -12q-45 -28 -65 -40q51 -60 95 -73q12 -4 12 -6q1 -3 -10 -4q-28 -2 -39 1q-12 3 -67 77q-4 -1 -9 -4q-3 -2 -4 -2t-3 -1h-1v-49q-1 -24 -6 -27q-13 6 -13 20q7 37 2 124q0 1 -1 2q0 3 -3 8q-1 1 -2 3q-2 6 -1 7q14 0 25 -11
q1 -4 -1 -9q-2 -4 -2 -13q1 -6 1 -24q1 -16 1 -24l2 2q81 51 87 71q0 5 2 6t7 -2z" />
    <glyph glyph-name="L" unicode="L" horiz-adv-x="141" 
d="M47 29q41 9 74 9q11 -2 17 -11q3 -7 -8 -6q-55 3 -83 -3q-8 -2 -11 -5t-7 -4q-8 6 -8 15q0 2 4 8q-4 -5 1 2q3 4 4 14q5 32 0 105q0 3 -3 12q0 1 -1 2q-4 6 -2 8q15 0 26 -11q0 -4 -1 -10q-2 -3 -2 -12v-32q-1 -56 0 -81z" />
    <glyph glyph-name="M" unicode="M" horiz-adv-x="234" 
d="M34 35q-9 -24 -16 -24q-9 11 -5 24q17 30 29 135q9 6 24 -1q2 -2 2 -6q1 -1 1 -2q0 -6 3 -13q20 -50 45 -103q30 65 54 127q9 3 22 -6q1 -1 1 -6v-3q0 -4 1 -13q3 -14 12 -57q8 -35 10 -46q3 -25 -2 -28q-12 2 -16 17q2 28 -21 120q-32 -73 -46 -112q-4 -14 -15 -14
q-11 1 -14 13q-9 26 -48 113q-13 -86 -21 -115z" />
    <glyph glyph-name="N" unicode="N" horiz-adv-x="207" 
d="M45 35q-3 -23 -10 -26q-12 7 -10 23q6 13 7 50q0 42 -4 84q8 7 24 3q3 -3 4 -7q1 -6 5 -13q49 -59 102 -116q7 40 1 121q0 5 -3 10l-1 1q-4 6 -3 9q14 1 25 -11q1 -3 -1 -8q-2 -4 -2 -14v-10q3 -68 2 -93q1 -25 -7 -26q-13 -6 -21 6q-29 41 -108 129v-12q3 -77 0 -100z
" />
    <glyph glyph-name="O" unicode="O" horiz-adv-x="210" 
d="M197 97q-6 -81 -91 -88q-87 4 -93 79q6 83 94 88q83 -7 90 -79zM179 91q-3 69 -78 72q-66 -3 -72 -70q3 -67 79 -70q67 3 71 68z" />
    <glyph glyph-name="P" unicode="P" horiz-adv-x="143" 
d="M45 161v-71q72 0 72 42q1 43 -72 29zM45 37q0 -27 -6 -27q-11 5 -13 20q5 28 4 77q-2 50 -8 62q-11 16 24 3q52 9 71 -6q17 -12 18 -34q1 -54 -90 -54v-41z" />
    <glyph glyph-name="Q" unicode="Q" horiz-adv-x="210" 
d="M163 -1q20 -12 34 -14q7 -2 9 -5q0 -3 -7 -4q-35 -2 -41 0q-8 0 -15 9q-13 13 -22 25q-7 -1 -15 -1q-87 4 -93 79q6 83 94 88q83 -7 90 -79q-2 -59 -57 -82q10 -9 23 -16zM108 23h3q-3 3 -6 8q-12 18 -23 25q-7 6 -4 9q3 2 11 -3q12 -5 30 -25q4 -6 10 -12q48 15 50 66
q-3 69 -78 72q-66 -3 -72 -70q3 -67 79 -70z" />
    <glyph glyph-name="R" unicode="R" horiz-adv-x="205" 
d="M159 34q15 -9 36 -14q7 -2 8 -5q0 -3 -7 -4q-48 -4 -55 9q-15 14 -34 40q-8 13 -21 22q-17 -3 -41 -4q1 -22 1 -41q0 -26 -6 -27q-12 4 -14 20q5 28 4 77q-2 50 -8 62q-11 16 24 3q57 9 78 -6q17 -12 18 -34q-1 -35 -43 -47q10 -7 23 -21q19 -20 37 -30zM45 161v-71
q79 0 79 42q1 43 -79 29z" />
    <glyph glyph-name="S" unicode="S" horiz-adv-x="124" 
d="M60 88q-45 7 -44 48q3 36 43 40q35 2 52 -19q3 -6 -6 -8q-12 -2 -16 3q-6 13 -28 13q-27 -3 -31 -28q-3 -28 30 -35q55 -9 54 -49q-4 -44 -57 -45q-24 3 -38 16q-7 6 -6 10q2 4 9 -1q14 -11 36 -12q38 2 42 33q0 26 -40 34z" />
    <glyph glyph-name="T" unicode="T" horiz-adv-x="173" 
d="M141 178q17 -4 22 -10q5 -8 -8 -8q-24 2 -69 0q9 -5 9 -7q3 -4 0 -8t-2 -14q0 -12 1 -46q1 -35 1 -48q0 -25 -7 -27q-12 7 -12 20q7 32 2 114q0 1 -1 2q0 3 -3 8q-2 2 -2 4q-18 -1 -46 -5q-3 -1 -5 -1q-9 3 -12 9q-2 4 6 5q76 3 126 12z" />
    <glyph glyph-name="U" unicode="U" horiz-adv-x="202" 
d="M155 51q12 24 6 101q0 6 -4 12q-4 8 -3 10q14 0 25 -11q0 -4 -1 -9q-2 -4 -2 -13q2 -81 -8 -97q-18 -35 -65 -35q-48 -1 -67 33q-6 10 -8 31q-2 16 -2 69q0 6 -3 16q-1 2 -2 5q-3 4 -2 5q14 0 25 -11q0 -4 -1 -9q-2 -4 -2 -13q-2 -65 6 -83q14 -31 55 -32q40 3 53 31z
" />
    <glyph glyph-name="V" unicode="V" horiz-adv-x="175" 
d="M93 12q-4 -6 -9 0q-11 28 -36 83q-12 29 -19 44q-5 11 -9 15q-8 6 -7 9q13 3 26 -4q3 -4 4 -10q0 -4 3 -11q16 -44 44 -96q6 13 25 54q15 34 23 51q4 13 4 18v3q-1 6 1 7q13 -6 17 -21l-3 -6l-2 -2q-3 -3 -7 -10q-6 -12 -24 -53q-22 -51 -31 -71z" />
    <glyph glyph-name="W" unicode="W" 
d="M87 12q-5 -6 -10 0q-16 37 -41 107q-5 14 -7 21q-5 13 -9 16q-8 6 -7 8q11 5 26 -3q2 -3 4 -10q1 -6 3 -11q14 -50 36 -98q1 2 2 5q21 61 30 98v4q1 4 1 6q2 8 3 11q13 9 25 -1q2 -3 2 -9q0 -2 1 -6t1 -6q13 -58 31 -102q22 51 41 105q3 10 3 18v2q-1 7 2 8q13 -7 17 -20
q-1 -2 -3 -5q-2 -2 -2 -3q-2 -3 -5 -8q0 -2 -1 -3q-5 -13 -17 -45q-21 -51 -32 -80q-5 -6 -9 1q-21 60 -41 138q-3 -7 -13 -41q-21 -71 -31 -97z" />
    <glyph glyph-name="X" unicode="X" horiz-adv-x="192" 
d="M78 107q3 -3 9 -10q5 -7 8 -11q9 8 15 16q37 45 36 62q-3 9 -2 11t8 -1q27 -13 19 -20q-6 -6 -24 -29q-13 -17 -21 -27q-8 -12 -19 -23q40 -44 74 -50q10 -2 11 -4q1 -3 -8 -4q-38 -6 -48 -3q-9 4 -43 52q-41 -40 -82 -54q-7 -3 -8 0q0 4 6 7q44 27 74 57q-2 3 -7 9
l-15 20q-22 27 -36 34q-19 11 -15 12q12 8 31 -3q14 -12 37 -41z" />
    <glyph glyph-name="Y" unicode="Y" horiz-adv-x="180" 
d="M100 71q2 -23 1 -35q0 -27 -7 -27q-12 6 -12 20q2 20 2 41q-13 16 -31 40q-13 16 -20 25l-5 5q-7 9 -9 10q-8 6 -7 8q12 7 28 -2q2 -3 3 -7t7 -12q10 -15 30 -38q8 -9 12 -14q25 31 45 62q5 10 6 16q0 10 2 11q12 -6 17 -20q-1 -4 -7 -11q-4 -5 -7 -8q-24 -30 -48 -64z
" />
    <glyph glyph-name="Z" unicode="Z" horiz-adv-x="173" 
d="M137 36q17 -3 22 -9q4 -7 -8 -8q-75 3 -116 -8q-13 -2 -21 6q-5 7 4 16q60 57 104 129q-6 -1 -16 -3q-12 -2 -35 -8q-23 -5 -35 -5q-10 2 -19 10q-4 6 6 6q63 -1 95 12l4 2q4 2 7 2q27 -9 25 -20q-2 -3 -9 -7q-2 -1 -3 -2q-7 -3 -21 -18q-36 -47 -90 -107q4 0 17 2
q65 5 89 10z" />
    <glyph glyph-name="bracketleft" unicode="[" horiz-adv-x="77" 
d="M66 180q-13 0 -24 -4q0 -25 -1 -67q-1 -83 -1 -119q11 4 21 4q8 1 12 -5q5 -9 -3 -8q-15 3 -27 0q-3 -1 -8 -5q1 1 -4 -2q-9 5 -9 13q0 2 3 8q2 6 2 17q1 26 1 64q0 34 -1 59q-1 48 -5 54q-11 17 22 -2q8 6 13 6q13 0 17 -5q3 -8 -8 -8z" />
    <glyph glyph-name="backslash" unicode="\" horiz-adv-x="116" 
d="M25 173l79 -161q-3 -6 -14 0l-77 161q4 6 12 0z" />
    <glyph glyph-name="bracketright" unicode="]" horiz-adv-x="77" 
d="M19 -21q-8 -2 -15 4q-4 5 4 7q6 1 17 3q5 1 7 2q4 3 6 80q1 97 -2 108q-5 3 -17 -3q-6 -3 -14 2q-6 5 2 7q13 3 17 5q1 0 1 1q3 2 5 2q22 -4 25 -14q0 -2 -3 -8q-2 -3 -2 -25v-57q1 -79 0 -93q-1 -22 -9 -24q-5 -1 -8 8q-5 -2 -14 -5z" />
    <glyph glyph-name="asciicircum" unicode="^" horiz-adv-x="84" 
d="M43 155q-8 -9 -17 -20q-5 -5 -7 -8q-4 -3 -6 -2t0 5q9 15 22 40q3 6 8 5q5 0 7 -5q7 -13 18 -32q3 -6 5 -9q1 -3 -1 -4q-3 -1 -5 1q-11 11 -24 29z" />
    <glyph glyph-name="underscore" unicode="_" horiz-adv-x="128" 
d="M125 -19h-123q-8 6 0 13h123q5 0 5 -7q0 -6 -5 -6z" />
    <glyph glyph-name="grave" unicode="`" horiz-adv-x="84" 
d="M30 172q8 -3 30 -32q5 -5 3 -7q-3 -3 -8 1q-34 21 -37 28q-1 13 12 10z" />
    <glyph glyph-name="a" unicode="a" horiz-adv-x="101" 
d="M24 56q0 -23 13 -27q23 0 31 28v11q1 17 0 30q-42 -5 -44 -42zM67 108q0 3 -2 5l-1 1q-3 2 -1 4q15 0 22 -12q0 -2 -1 -4v-3q-2 -4 -2 -12q0 -24 2 -52v-7q2 -20 -5 -20q-12 5 -13 14q0 1 1 2q1 4 1 9q-13 -23 -35 -21q-25 2 -24 39q1 50 58 57z" />
    <glyph glyph-name="b" unicode="b" horiz-adv-x="128" 
d="M11 184q12 1 24 -10q1 -2 0 -5v-4q-2 -4 -2 -13v-17q1 -18 1 -28q75 26 83 -37q0 -53 -83 -50q-2 -11 -6 -12q-11 4 -13 20q7 40 2 137q0 2 -2 7q-1 2 -1 3q-1 1 -2 3q-3 5 -1 6zM35 35v-3q68 1 66 37q-6 54 -67 25q1 -23 1 -59z" />
    <glyph glyph-name="c" unicode="c" horiz-adv-x="109" 
d="M80 95q-7 10 -20 9q-30 -2 -32 -39q0 -41 33 -42q20 -1 30 15q6 4 9 1q2 -3 -2 -10q-17 -21 -39 -19q-45 3 -47 52q2 51 47 54q26 0 39 -12q0 -12 -18 -9z" />
    <glyph glyph-name="d" unicode="d" horiz-adv-x="128" 
d="M87 185q14 0 24 -11q2 -4 0 -8q-2 -5 -2 -14q2 -50 2 -116q0 -25 -7 -27q-12 4 -13 15q1 3 1 9q-20 -24 -52 -18q-28 9 -29 43q1 55 58 56q12 1 26 -4q0 27 -2 56q0 2 -2 6q-1 2 -1 3t-1 2q-4 6 -2 8zM45 30q33 -6 49 25q2 19 2 43q-15 5 -27 5q-42 -1 -43 -43
q0 -22 19 -30z" />
    <glyph glyph-name="e" unicode="e" horiz-adv-x="111" 
d="M89 59q-26 1 -59 -4q4 -29 30 -33q24 -3 37 21q4 6 7 3q2 -4 -1 -11q-14 -27 -44 -26q-42 4 -47 53q-1 51 47 55q39 -1 46 -44q0 -11 -16 -14zM29 69q23 -1 57 5q-3 32 -29 32q-27 -2 -28 -37z" />
    <glyph glyph-name="f" unicode="f" horiz-adv-x="69" 
d="M41 129v-10q5 2 9 3q12 -4 15 -9q3 -7 -5 -7h-19q0 -15 1 -38v-30q-1 -26 -7 -27q-11 4 -13 20q4 24 4 73q-6 -1 -13 -3q-15 10 -5 12q9 0 18 1q-1 5 -1 15q-2 55 45 55q25 1 35 -10q-2 -12 -21 -7q-3 6 -14 7q-30 1 -29 -45z" />
    <glyph glyph-name="g" unicode="g" horiz-adv-x="119" 
d="M109 31q-1 -51 -47 -55q-31 -3 -50 18q-6 6 -4 8q3 3 8 -1q19 -18 49 -13q27 7 29 36v5q-20 -20 -54 -14q-28 8 -29 43q2 47 50 51q15 1 30 -3q0 1 -1 2q-4 8 -3 9q15 1 25 -10q0 -3 -1 -8q-2 -4 -2 -14v-54zM42 29q34 -10 53 17q0 36 -1 48q-15 7 -32 5q-33 -3 -35 -36
q-2 -21 15 -34z" />
    <glyph glyph-name="h" unicode="h" horiz-adv-x="133" 
d="M15 184q13 1 25 -10q1 -3 -1 -7q2 3 0 -1q-2 -5 -2 -14q1 -10 1 -46q15 12 37 12q35 -2 36 -41q1 -24 1 -40q-1 -26 -7 -27q-12 4 -13 15q5 22 5 52q0 29 -26 29q-18 0 -32 -21v-48q-1 -24 -6 -27q-14 5 -13 16q7 41 2 139q-1 6 -4 10q-4 8 -3 9z" />
    <glyph glyph-name="i" unicode="i" horiz-adv-x="66" 
d="M19 164q1 11 14 12q12 -1 13 -12q-1 -12 -13 -13q-13 1 -14 13zM19 120q12 1 24 -10q1 -3 0 -8q-1 -1 -1 -2q-1 -4 -1 -12q0 -4 1 -11q1 -27 1 -40q0 -25 -7 -27q-11 5 -13 20q7 28 2 71q0 2 -2 7q-1 2 -1 3q-1 1 -2 3q-3 5 -1 6z" />
    <glyph glyph-name="j" unicode="j" horiz-adv-x="64" 
d="M19 164q1 11 14 12q12 -1 13 -12q-1 -12 -13 -13q-13 1 -14 13zM34 -7q-10 -16 -31 -18q-16 1 -25 9q-5 6 -4 8t8 -1q29 -14 42 16q4 12 5 31q1 17 -1 60v2q-2 7 -4 10q-4 8 -3 9q13 1 25 -10q0 -4 -1 -8q-2 -4 -2 -14q4 -77 -9 -94z" />
    <glyph glyph-name="k" unicode="k" horiz-adv-x="128" 
d="M39 61v-24q0 -25 -7 -27q-11 5 -13 20q7 34 2 135q0 3 -2 7q-1 2 -1 3t-1 3q-4 5 -2 6q12 1 24 -10q2 -4 0 -8t-2 -14q0 -47 2 -82q53 32 53 47q0 5 2 6t7 -2q18 -14 13 -19q-3 -1 -11 -6q-22 -13 -47 -26q36 -42 61 -48q10 -4 10 -6t-9 -3q-22 -2 -31 1q-8 0 -39 52
l-6 -3q-1 -1 -2 -1t-1 -1z" />
    <glyph glyph-name="l" unicode="l" horiz-adv-x="60" 
d="M16 185q14 0 25 -11q0 -4 -1 -8q-2 -4 -2 -14q0 -5 -1 -20q-3 -73 -2 -102q0 -6 3 -7q3 0 8 5q5 1 3 -6q-5 -13 -20 -12q-13 2 -12 20q6 48 6 132q0 8 -4 13q0 1 -1 2q-4 6 -2 8z" />
    <glyph glyph-name="m" unicode="m" horiz-adv-x="202" 
d="M15 119q11 1 25 -10q0 -2 -1 -8q1 4 -1 -2q12 17 32 17q23 1 35 -19q14 20 38 20q38 0 38 -44q1 -8 1 -36q-2 -27 -7 -27q-11 7 -10 20q0 2 1 6q2 8 2 14q3 58 -26 55q-21 -2 -30 -25v-43q-1 -25 -6 -28q-13 7 -11 20q3 8 3 20t-1 27q-3 27 -27 28q-19 0 -33 -23
q0 -3 1 -10q1 -22 1 -33q0 -25 -6 -28q-12 5 -14 20q7 28 2 70q0 6 -3 10q0 1 -1 3q-4 5 -2 6z" />
    <glyph glyph-name="n" unicode="n" horiz-adv-x="133" 
d="M15 119q11 1 25 -10q0 -2 -1 -8q1 4 -1 -2q13 17 32 17q43 0 43 -39q-1 -18 -1 -40q0 -26 -6 -27q-11 7 -11 20q4 12 4 20q0 12 -1 26q-1 29 -28 28q-22 -2 -33 -25q0 -3 1 -9q1 -21 1 -32q0 -25 -6 -28q-12 5 -14 20q7 28 2 70q0 6 -3 10q0 1 -1 3q-4 5 -2 6z" />
    <glyph glyph-name="o" unicode="o" horiz-adv-x="133" 
d="M11 62q3 50 56 55q50 -4 54 -54q-4 -49 -53 -53q-52 4 -57 52zM26 69q0 -43 43 -47q34 4 38 35q-1 46 -43 49q-34 -3 -38 -37z" />
    <glyph glyph-name="p" unicode="p" horiz-adv-x="128" 
d="M37 12v-13q0 -25 -7 -27q-12 7 -12 20q7 31 2 110q-1 5 -4 9q-1 1 -2 3q-2 6 -1 7q7 2 23 -8q77 15 80 -48q-4 -55 -79 -53zM100 68q-1 46 -63 34q-2 -5 -2 -14q2 -34 2 -65q64 -1 63 45z" />
    <glyph glyph-name="q" unicode="q" horiz-adv-x="128" 
d="M87 119q14 0 24 -11q2 -4 0 -8t-2 -14q0 -59 1 -87q-1 -25 -7 -26q-11 5 -13 20v2q4 19 4 32q-20 -20 -53 -14q-28 7 -30 45q2 47 50 51q15 1 30 -3v2l-1 1q0 1 -1 2q-4 6 -2 8zM43 27q31 -11 52 16q1 21 -2 52q-14 6 -31 4q-33 -3 -35 -36q-2 -26 16 -36z" />
    <glyph glyph-name="r" unicode="r" horiz-adv-x="84" 
d="M39 96l-1 -3q20 25 47 22q7 -11 -13 -19q-16 2 -34 -20q0 -12 1 -30q1 -5 1 -8q0 -26 -7 -28q-13 6 -13 20q6 31 2 68q0 2 -2 6q-1 2 -1 3q-1 2 -2 5q-3 4 -2 5q14 0 25 -11q1 -2 0 -7q-1 -2 -1 -3z" />
    <glyph glyph-name="s" unicode="s" horiz-adv-x="77" 
d="M36 58q-29 7 -28 33q2 23 29 26q19 0 30 -12q-2 -10 -17 -7q-4 9 -12 8q-15 0 -15 -14q-2 -17 14 -20q33 -8 32 -33q-2 -29 -34 -29q-13 1 -22 9q-5 5 -5 9q1 4 6 0q8 -7 21 -7q18 -1 19 18q0 15 -18 19z" />
    <glyph glyph-name="t" unicode="t" horiz-adv-x="74" 
d="M20 140q14 0 25 -11q1 -4 -1 -8q1 0 0 -1q-1 -2 -1 -5q-1 -3 -1 -5q4 1 11 4q2 1 3 1q25 -10 11 -17q-15 2 -25 0q0 -40 1 -67q4 -16 25 2q3 2 5 -1q2 -4 -1 -7q-16 -19 -34 -16q-15 4 -13 20q3 20 3 31q1 12 0 36q-6 -1 -12 -3q-14 11 -4 12q8 0 15 1v11q0 7 -4 13
q-4 8 -3 10z" />
    <glyph glyph-name="u" unicode="u" horiz-adv-x="133" 
d="M110 66v-15q1 -44 -4 -41q-9 1 -13 13q-10 -8 -30 -10q-25 1 -37 22q-4 8 -4 47v15q0 6 -2 10q0 1 -1 2q-2 2 -1 4q10 1 21 -11q1 -1 0 -4q-1 -1 -1 -2q-1 -3 -1 -8q-2 -39 2 -46q7 -19 27 -18q19 0 26 20q7 14 4 59q0 2 -2 5l-1 2q0 1 -1 3t-1 3q12 1 20 -9v-6
q-1 -2 -1 -8v-27z" />
    <glyph glyph-name="v" unicode="v" horiz-adv-x="122" 
d="M72 21q-5 -10 -10 -10q-4 -1 -9 9q-13 32 -30 62q-2 6 -8 15l-1 1q-9 6 -7 8q13 3 26 -4q2 -3 2 -6q1 -6 5 -13q9 -22 22 -44q7 10 19 36q5 11 8 17q4 9 4 15v3q-1 6 1 7q10 -1 16 -18q-1 -4 -4 -7q-3 -4 -7 -11q-14 -29 -27 -60z" />
    <glyph glyph-name="w" unicode="w" horiz-adv-x="188" 
d="M72 21q-4 -10 -9 -10t-9 9q-18 41 -29 64q-1 1 -3 5q-4 8 -5 9l-5 5q-4 3 -4 4q13 5 26 -4q2 -3 3 -6q0 -1 1 -4q2 -5 3 -9l3 -6q11 -25 19 -39q9 17 18 50v3q1 4 1 7q1 5 4 9q10 11 21 0q3 -5 5 -19q8 -25 20 -51q12 21 26 54q3 9 4 15v2q-1 7 2 8q10 -2 15 -18
q0 -1 -1 -2q0 -1 -3 -6q-3 -3 -7 -10q-3 -7 -9 -19q-13 -27 -19 -40q-4 -10 -9 -11q-5 0 -9 10q-13 37 -25 68q-10 -25 -25 -68z" />
    <glyph glyph-name="x" unicode="x" horiz-adv-x="124" 
d="M54 76q4 -6 11 -13q31 36 28 46q-2 5 -1 7t5 0q21 -12 16 -18l-1 -1q-12 -14 -29 -36l-7 -7q24 -26 41 -31q6 -2 7 -5q0 -3 -6 -3q-23 -3 -29 -2q-7 3 -26 29q-22 -21 -54 -31q-6 -2 -7 0t4 5q29 17 46 37q-1 2 -4 6q-4 8 -8 12q-10 16 -26 23q-1 1 -4 2q-5 4 -3 5
q10 8 23 2q5 -5 18 -20q4 -4 6 -7z" />
    <glyph glyph-name="y" unicode="y" horiz-adv-x="119" 
d="M31 -23q-6 -3 -8 -1t2 7q16 16 28 40q-15 34 -31 62q-1 1 -4 6q-4 7 -5 8l-2 2q-4 3 -3 5q12 4 25 -3q1 -1 1 -3q1 -2 1 -3q0 -2 2 -7l2 -4q11 -24 23 -47q10 14 27 53q3 9 4 16q0 9 1 10q12 -5 16 -17q0 -1 -1 -5q1 2 -1 -2q-1 -1 -5 -7q-1 -3 -2 -4q-16 -37 -31 -61
q-22 -35 -39 -45z" />
    <glyph glyph-name="z" unicode="z" horiz-adv-x="103" 
d="M79 34q17 -3 21 -9q3 -7 -9 -7q-37 5 -62 -6q-11 -4 -20 5q-6 8 3 16q22 19 56 72q-24 -3 -43 -13q-6 -1 -14 8q-6 7 2 7q30 1 48 9q1 0 3 1q7 4 9 3q7 -1 18 -11q9 -8 4 -10q-14 -7 -26 -23l-3 -3q-21 -23 -41 -49q12 1 34 6q12 2 20 4z" />
    <glyph glyph-name="braceleft" unicode="{" horiz-adv-x="122" 
d="M32 83q-5 2 -5 6q-1 4 4 5q26 9 23 25q-4 25 -3 43q3 33 35 42q11 3 11 0q-1 -3 -12 -9q-28 -14 -16 -64q10 -34 -19 -42q27 -10 20 -40q-12 -50 18 -64q9 -4 8 -8q-2 -3 -11 0q-28 8 -33 35q-4 20 2 46q3 19 -22 25z" />
    <glyph glyph-name="bar" unicode="|" horiz-adv-x="130" 
d="M71 188v-195q-6 -8 -12 0v195q6 6 12 0z" />
    <glyph glyph-name="braceright" unicode="}" horiz-adv-x="122" 
d="M90 95q5 -2 6 -6q0 -4 -5 -5q-25 -6 -23 -23q3 -17 6 -38q1 -33 -38 -47q-8 -2 -10 1q0 4 8 7q34 12 19 62q-10 34 20 43q-27 5 -20 39q13 54 -17 67q-10 4 -10 8q2 3 13 0q32 -13 34 -46q0 -10 -3 -33q-1 -4 -1 -6q-2 -15 21 -23z" />
    <glyph glyph-name="asciitilde" unicode="~" horiz-adv-x="138" 
d="M128 107q1 4 5 4t3 -4q-2 -32 -32 -33q-13 0 -39 11q-3 2 -10 4q-6 3 -10 4q-29 10 -36 -17q-1 -4 -4 -4q-4 0 -3 4q1 33 32 33q16 0 37 -11q16 -9 28 -11q24 -5 29 20z" />
    <glyph glyph-name="cent" unicode="&#xa2;" 
d="M147 125l-22 -75q5 -1 9 -1q18 0 30 14q4 5 8 2q2 -3 -2 -9q-15 -20 -38 -20q-6 0 -11 1l-10 -36h-11l11 39q-27 14 -28 48q4 51 49 54h9l10 33h12l-11 -35q12 -4 18 -10q0 -13 -18 -9q-2 3 -5 4zM115 54l23 76h-5q-31 -1 -33 -39q-1 -27 15 -37z" />
    <glyph glyph-name="sterling" unicode="&#xa3;" 
d="M103 69h43l-2 -8h-45q-12 -15 -22 -25q13 5 28 5q18 0 42 -12q19 -10 31 -10q20 1 23 14q0 3 -3 8q-3 3 -3 5q0 7 8 7q10 -1 11 -13q-5 -28 -47 -32q-19 0 -38 12q-21 14 -37 13q-9 0 -20 -5q-16 -20 -30 -20q-5 1 -6 4q2 11 30 22q9 14 17 27h-38l1 8h41q1 2 3 5
q11 19 15 31q20 37 44 56q21 15 41 14q28 -1 31 -13q0 -8 -8 -8q-5 0 -12 5q-10 8 -20 8t-19 -6q-15 -15 -33 -50q-13 -24 -26 -42z" />
    <glyph glyph-name="currency" unicode="&#xa4;" 
d="M170 49l16 -17l-8 -8l-17 17q-16 -12 -33 -12q-19 0 -34 12l-17 -17l-8 8l17 17q-11 13 -11 33t11 34l-17 17l8 8l17 -17q15 12 34 12q17 0 33 -12l17 17l8 -8l-16 -17q11 -17 11 -34q0 -18 -11 -33zM86 82q2 -39 42 -41q39 2 41 41q-3 39 -41 42q-39 -3 -42 -42z" />
    <glyph glyph-name="yen" unicode="&#xa5;" 
d="M124 64v6q-17 23 -42 54q-5 7 -8 11q-2 3 -14 15q-8 6 -7 8q12 7 27 -2q3 -3 4 -7v-1q2 -6 6 -11q13 -18 39 -47q3 -3 4 -5q25 31 45 62q5 10 6 16q0 10 2 11q12 -6 17 -20q-1 -4 -7 -11q-4 -5 -7 -8q-24 -30 -48 -64v-6q7 1 22 2q20 2 28 3q14 -6 8 -15q-27 -1 -57 -3
v-16q0 -26 -6 -27q-12 4 -14 20q2 10 2 22q-9 -1 -28 -2q-15 -2 -22 -2q-14 6 -8 13q4 0 14 1q28 1 44 3z" />
    <glyph glyph-name="section" unicode="&#xa7;" 
d="M146 27q0 14 -41 52q-26 23 -26 48q4 45 59 48q31 -2 35 -12q-1 -8 -9 -9q-4 0 -11 5q-11 8 -21 8q-21 -1 -22 -12q-2 -10 32 -41q37 -33 35 -60q-3 -43 -59 -46q-32 1 -35 12q1 8 9 9q5 0 12 -6q10 -7 20 -7q20 1 22 11zM113 86q42 -37 44 -56q8 11 8 21q2 26 -29 54
q-38 31 -37 47q-9 -8 -9 -23q-1 -19 23 -43z" />
    <glyph glyph-name="dieresis" unicode="&#xa8;" 
d="M152 162q11 -1 12 -12q-1 -10 -12 -11q-10 1 -11 11q1 11 11 12zM103 162q10 -1 11 -12q-1 -10 -11 -11q-11 1 -12 11q2 11 12 12z" />
    <glyph glyph-name="degree" unicode="&#xb0;" 
d="M47 165q-22 -2 -24 -25q1 -24 24 -25q22 1 23 25q-1 23 -23 25zM47 176q33 -2 35 -36q-2 -33 -35 -36q-34 2 -36 36q2 34 36 36z" />
    <glyph glyph-name="plusminus" unicode="&#xb1;" 
d="M134 106h56q6 0 6 -5q0 -6 -6 -6h-56v-39q-6 -9 -13 0v39h-55q-5 0 -5 6q0 5 5 5h55v39q7 9 13 0v-39zM65 41h125q5 0 5 -6t-5 -6h-125q-5 0 -5 6t5 6z" />
    <glyph glyph-name="periodcentered" unicode="&#xb7;" 
d="M128 69q-20 1 -21 20q1 20 21 21q19 -1 21 -20q-2 -20 -21 -21z" />
    <glyph glyph-name="multiply" unicode="&#xd7;" 
d="M128 75l-51 -49q-5 -4 -9 0q-3 4 1 9l50 48l-50 50q-4 4 0 8q4 3 8 0l51 -49l51 49q4 4 9 0q4 -4 0 -8l-51 -50l50 -48q4 -4 0 -8t-8 -1z" />
    <glyph glyph-name="agrave" unicode="&#xe0;" 
d="M105 56q0 -23 12 -27q23 -2 32 28v41q-42 -5 -44 -42zM148 108q-1 3 -3 5l-1 1q-1 2 0 4q15 0 22 -12q1 -4 -1 -7q-2 -4 -2 -12q0 -33 3 -59q0 -21 -6 -20q-13 5 -13 14q0 1 1 2q1 4 1 9q-13 -23 -36 -21q-24 2 -24 39q2 50 59 57zM144 131l-29 20q-10 6 -9 13q-1 6 7 9
q8 0 14 -9l21 -30q2 -2 0 -4q-1 -1 -4 1z" />
    <glyph glyph-name="aacute" unicode="&#xe1;" 
d="M105 56q0 -23 12 -27q23 -2 32 28v41q-42 -5 -44 -42zM148 108q-1 3 -3 5l-1 1q-1 2 0 4q15 0 22 -12q1 -4 -1 -7q-2 -4 -2 -12q0 -33 3 -59q0 -21 -6 -20q-13 5 -13 14q0 1 1 2q1 4 1 9q-13 -23 -36 -21q-24 2 -24 39q2 50 59 57zM151 164l-23 -28q-7 -8 -13 -8
q-7 1 -8 8q0 9 9 14l32 18q2 2 4 1q1 -2 -1 -5z" />
    <glyph glyph-name="egrave" unicode="&#xe8;" 
d="M158 59q-27 1 -58 -4q2 -29 30 -33q22 -3 37 21q4 6 6 3q2 -4 -1 -11q-13 -27 -43 -26q-43 4 -48 53q1 51 48 55q38 -1 45 -44q0 -12 -16 -14zM99 69q22 -1 56 5q-3 32 -28 32q-27 -2 -28 -37zM144 131l-29 20q-10 6 -9 13q-1 6 7 9q8 0 14 -9l21 -30q2 -2 0 -4
q-1 -1 -4 1z" />
    <glyph glyph-name="eacute" unicode="&#xe9;" 
d="M158 59q-27 1 -58 -4q2 -29 30 -33q22 -3 37 21q4 6 6 3q2 -4 -1 -11q-13 -27 -43 -26q-43 4 -48 53q1 51 48 55q38 -1 45 -44q0 -12 -16 -14zM99 69q22 -1 56 5q-3 32 -28 32q-27 -2 -28 -37zM151 164l-23 -28q-7 -8 -13 -8q-7 1 -8 8q0 9 9 14l32 18q2 2 4 1
q1 -2 -1 -5z" />
    <glyph glyph-name="ecircumflex" unicode="&#xea;" 
d="M158 59q-27 1 -58 -4q2 -29 30 -33q22 -3 37 21q4 6 6 3q2 -4 -1 -11q-13 -27 -43 -26q-43 4 -48 53q1 51 48 55q38 -1 45 -44q0 -12 -16 -14zM99 69q22 -1 56 5q-3 32 -28 32q-27 -2 -28 -37zM126 154l-21 -23q-3 -3 -5 -2q-1 2 0 5l18 36h17l18 -37q1 -2 -1 -4
q-2 0 -4 2z" />
    <glyph glyph-name="igrave" unicode="&#xec;" 
d="M114 120q13 1 25 -10q1 -3 0 -8q-1 -1 -1 -2q-2 -4 -1 -12q0 -4 1 -11q1 -27 1 -40q0 -25 -7 -27q-13 6 -13 20q6 33 2 71q0 2 -2 7q-1 2 -1 3q-1 1 -2 4q-3 4 -2 5zM144 131l-29 20q-10 6 -9 13q-1 6 7 9q8 0 14 -9l21 -30q2 -2 0 -4q-1 -1 -4 1z" />
    <glyph glyph-name="iacute" unicode="&#xed;" 
d="M114 120q13 1 25 -10q1 -3 0 -8q-1 -1 -1 -2q-2 -4 -1 -12q0 -4 1 -11q1 -27 1 -40q0 -25 -7 -27q-13 6 -13 20q6 33 2 71q0 2 -2 7q-1 2 -1 3q-1 1 -2 4q-3 4 -2 5zM151 164l-23 -28q-7 -8 -13 -8q-7 1 -8 8q0 9 9 14l32 18q2 2 4 1q1 -2 -1 -5z" />
    <glyph glyph-name="ograve" unicode="&#xf2;" 
d="M73 62q3 50 55 55q51 -4 55 -54q-4 -49 -54 -53q-52 4 -56 52zM87 69q1 -44 43 -47q34 4 38 35q-1 46 -43 49q-34 -3 -38 -37zM144 131l-29 20q-10 6 -9 13q-1 6 7 9q8 0 14 -9l21 -30q2 -2 0 -4q-1 -1 -4 1z" />
    <glyph glyph-name="oacute" unicode="&#xf3;" 
d="M73 62q3 50 55 55q51 -4 55 -54q-4 -49 -54 -53q-52 4 -56 52zM87 69q1 -44 43 -47q34 4 38 35q-1 46 -43 49q-34 -3 -38 -37zM151 164l-23 -28q-7 -8 -13 -8q-7 1 -8 8q0 9 9 14l32 18q2 2 4 1q1 -2 -1 -5z" />
    <glyph glyph-name="divide" unicode="&#xf7;" 
d="M60 91h135q5 0 5 -5q0 -6 -5 -6h-135q-4 0 -4 6q0 5 4 5zM128 146q11 0 11 -11q-1 -11 -11 -12q-12 0 -12 12q1 11 12 11zM128 49q11 0 11 -12q-1 -11 -11 -12q-12 0 -12 12q1 11 12 12z" />
    <glyph glyph-name="ugrave" unicode="&#xf9;" 
d="M173 66v-18q1 -41 -3 -38q-10 1 -14 13q-10 -9 -30 -10q-25 1 -36 22q-6 7 -5 62q0 6 -2 10q-2 3 -2 6q9 2 22 -11q0 -1 -1 -3t-1 -3v-3q-1 -3 -1 -5q-2 -39 2 -46q7 -18 27 -18q19 0 26 20q8 17 4 59q0 1 -1 4q-1 2 -1 3t-1 3q-2 2 -1 3q11 1 19 -9q2 -2 0 -6
q-1 -2 -1 -8v-27zM144 131l-29 20q-10 6 -9 13q-1 6 7 9q8 0 14 -9l21 -30q2 -2 0 -4q-1 -1 -4 1z" />
    <glyph glyph-name="uacute" unicode="&#xfa;" 
d="M173 66v-18q1 -41 -3 -38q-10 1 -14 13q-10 -9 -30 -10q-25 1 -36 22q-6 7 -5 62q0 6 -2 10q-2 3 -2 6q9 2 22 -11q0 -1 -1 -3t-1 -3v-3q-1 -3 -1 -5q-2 -39 2 -46q7 -18 27 -18q19 0 26 20q8 17 4 59q0 1 -1 4q-1 2 -1 3t-1 3q-2 2 -1 3q11 1 19 -9q2 -2 0 -6
q-1 -2 -1 -8v-27zM151 164l-23 -28q-7 -8 -13 -8q-7 1 -8 8q0 9 9 14l32 18q2 2 4 1q1 -2 -1 -5z" />
    <glyph glyph-name="udieresis" unicode="&#xfc;" 
d="M173 66v-18q1 -41 -3 -38q-10 1 -14 13q-10 -9 -30 -10q-25 1 -36 22q-6 7 -5 62q0 6 -2 10q-2 3 -2 6q9 2 22 -11q0 -1 -1 -3t-1 -3v-3q-1 -3 -1 -5q-2 -39 2 -46q7 -18 27 -18q19 0 26 20q8 17 4 59q0 1 -1 4q-1 2 -1 3t-1 3q-2 2 -1 3q11 1 19 -9q2 -2 0 -6
q-1 -2 -1 -8v-27zM147 147q10 -1 11 -11q-1 -11 -11 -12q-9 1 -10 12q1 10 10 11zM110 147q9 -1 10 -11q-1 -10 -10 -12q-10 1 -11 12q1 10 11 11z" />
    <glyph glyph-name="amacron" unicode="&#x101;" 
d="M105 56q0 -23 12 -27q23 -2 32 28v41q-42 -5 -44 -42zM148 108q-1 3 -3 5l-1 1q-1 2 0 4q15 0 22 -12q1 -4 -1 -7q-2 -4 -2 -12q0 -33 3 -59q0 -21 -6 -20q-13 5 -13 14q0 1 1 2q1 4 1 9q-13 -23 -36 -21q-24 2 -24 39q2 50 59 57zM105 157h47q6 0 7 -7q-1 -7 -7 -7h-47
q-10 7 0 14z" />
    <glyph glyph-name="emacron" unicode="&#x113;" 
d="M158 59q-27 1 -58 -4q2 -29 30 -33q22 -3 37 21q4 6 6 3q2 -4 -1 -11q-13 -27 -43 -26q-43 4 -48 53q1 51 48 55q38 -1 45 -44q0 -12 -16 -14zM99 69q22 -1 56 5q-3 32 -28 32q-27 -2 -28 -37zM105 157h47q6 0 7 -7q-1 -7 -7 -7h-47q-10 7 0 14z" />
    <glyph glyph-name="ecaron" unicode="&#x11b;" 
d="M158 59q-27 1 -58 -4q2 -29 30 -33q22 -3 37 21q4 6 6 3q2 -4 -1 -11q-13 -27 -43 -26q-43 4 -48 53q1 51 48 55q38 -1 45 -44q0 -12 -16 -14zM99 69q22 -1 56 5q-3 32 -28 32q-27 -2 -28 -37zM126 144l22 24q2 2 4 1t1 -4l-18 -36h-17l-18 36q-1 3 0 4q2 1 5 -2z" />
    <glyph glyph-name="imacron" unicode="&#x12b;" 
d="M114 120q13 1 25 -10q1 -3 0 -8q-1 -1 -1 -2q-2 -4 -1 -12q0 -4 1 -11q1 -27 1 -40q0 -25 -7 -27q-13 6 -13 20q6 33 2 71q0 2 -2 7q-1 2 -1 3q-1 1 -2 4q-3 4 -2 5zM105 157h47q6 0 7 -7q-1 -7 -7 -7h-47q-10 7 0 14z" />
    <glyph glyph-name="nacute" unicode="&#x144;" 
d="M79 119q11 1 25 -10q0 -2 -1 -8q1 4 -1 -2q13 17 32 17q43 0 43 -39q-1 -18 -1 -40q0 -26 -6 -27q-11 7 -11 20q4 12 4 20q0 12 -1 26q-1 29 -28 28q-22 -2 -33 -25q0 -3 1 -9q1 -21 1 -32q0 -25 -6 -28q-12 5 -14 20q7 28 2 70q0 6 -3 10q0 1 -1 3q-4 5 -2 6zM151 164
l-23 -28q-7 -8 -13 -8q-7 1 -8 8q0 9 9 14l32 18q2 2 4 1q1 -2 -1 -5z" />
    <glyph glyph-name="ncaron" unicode="&#x148;" 
d="M79 119q11 1 25 -10q0 -2 -1 -8q1 4 -1 -2q13 17 32 17q43 0 43 -39q-1 -18 -1 -40q0 -26 -6 -27q-11 7 -11 20q4 12 4 20q0 12 -1 26q-1 29 -28 28q-22 -2 -33 -25q0 -3 1 -9q1 -21 1 -32q0 -25 -6 -28q-12 5 -14 20q7 28 2 70q0 6 -3 10q0 1 -1 3q-4 5 -2 6zM126 144
l22 24q2 2 4 1t1 -4l-18 -36h-17l-18 36q-1 3 0 4q2 1 5 -2z" />
    <glyph glyph-name="omacron" unicode="&#x14d;" 
d="M73 62q3 50 55 55q51 -4 55 -54q-4 -49 -54 -53q-52 4 -56 52zM87 69q1 -44 43 -47q34 4 38 35q-1 46 -43 49q-34 -3 -38 -37zM105 157h47q6 0 7 -7q-1 -7 -7 -7h-47q-10 7 0 14z" />
    <glyph glyph-name="umacron" unicode="&#x16b;" 
d="M173 66v-18q1 -41 -3 -38q-10 1 -14 13q-10 -9 -30 -10q-25 1 -36 22q-6 7 -5 62q0 6 -2 10q-2 3 -2 6q9 2 22 -11q0 -1 -1 -3t-1 -3v-3q-1 -3 -1 -5q-2 -39 2 -46q7 -18 27 -18q19 0 26 20q8 17 4 59q0 1 -1 4q-1 2 -1 3t-1 3q-2 2 -1 3q11 1 19 -9q2 -2 0 -6
q-1 -2 -1 -8v-27zM105 157h47q6 0 7 -7q-1 -7 -7 -7h-47q-10 7 0 14z" />
    <glyph glyph-name="uni01CE" unicode="&#x1ce;" 
d="M105 56q0 -23 12 -27q23 -2 32 28v41q-42 -5 -44 -42zM148 108q-1 3 -3 5l-1 1q-1 2 0 4q15 0 22 -12q1 -4 -1 -7q-2 -4 -2 -12q0 -33 3 -59q0 -21 -6 -20q-13 5 -13 14q0 1 1 2q1 4 1 9q-13 -23 -36 -21q-24 2 -24 39q2 50 59 57zM126 144l22 24q2 2 4 1t1 -4l-18 -36
h-17l-18 36q-1 3 0 4q2 1 5 -2z" />
    <glyph glyph-name="uni01D0" unicode="&#x1d0;" 
d="M114 120q13 1 25 -10q1 -3 0 -8q-1 -1 -1 -2q-2 -4 -1 -12q0 -4 1 -11q1 -27 1 -40q0 -25 -7 -27q-13 6 -13 20q6 33 2 71q0 2 -2 7q-1 2 -1 3q-1 1 -2 4q-3 4 -2 5zM126 144l22 24q2 2 4 1t1 -4l-18 -36h-17l-18 36q-1 3 0 4q2 1 5 -2z" />
    <glyph glyph-name="uni01D2" unicode="&#x1d2;" 
d="M73 62q3 50 55 55q51 -4 55 -54q-4 -49 -54 -53q-52 4 -56 52zM87 69q1 -44 43 -47q34 4 38 35q-1 46 -43 49q-34 -3 -38 -37zM126 144l22 24q2 2 4 1t1 -4l-18 -36h-17l-18 36q-1 3 0 4q2 1 5 -2z" />
    <glyph glyph-name="uni01D4" unicode="&#x1d4;" 
d="M173 66v-18q1 -41 -3 -38q-10 1 -14 13q-10 -9 -30 -10q-25 1 -36 22q-6 7 -5 62q0 6 -2 10q-2 3 -2 6q9 2 22 -11q0 -1 -1 -3t-1 -3v-3q-1 -3 -1 -5q-2 -39 2 -46q7 -18 27 -18q19 0 26 20q8 17 4 59q0 1 -1 4q-1 2 -1 3t-1 3q-2 2 -1 3q11 1 19 -9q2 -2 0 -6
q-1 -2 -1 -8v-27zM126 144l22 24q2 2 4 1t1 -4l-18 -36h-17l-18 36q-1 3 0 4q2 1 5 -2z" />
    <glyph glyph-name="uni01D6" unicode="&#x1d6;" 
d="M173 66v-18q1 -41 -3 -38q-10 1 -14 13q-10 -9 -30 -10q-25 1 -36 22q-6 7 -5 62q0 6 -2 10q-2 3 -2 6q9 2 22 -11q0 -1 -1 -3t-1 -3v-3q-1 -3 -1 -5q-2 -39 2 -46q7 -18 27 -18q19 0 26 20q8 17 4 59q0 1 -1 4q-1 2 -1 3t-1 3q-2 2 -1 3q11 1 19 -9q2 -2 0 -6
q-1 -2 -1 -8v-27zM105 178h47q6 0 7 -7q-1 -7 -7 -7h-47q-10 7 0 14zM147 147q10 -1 11 -11q-1 -11 -11 -12q-9 1 -10 12q1 10 10 11zM110 147q9 -1 10 -11q-1 -10 -10 -12q-10 1 -11 12q1 10 11 11z" />
    <glyph glyph-name="uni01D8" unicode="&#x1d8;" 
d="M173 66v-18q1 -41 -3 -38q-10 1 -14 13q-10 -9 -30 -10q-25 1 -36 22q-6 7 -5 62q0 6 -2 10q-2 3 -2 6q9 2 22 -11q0 -1 -1 -3t-1 -3v-3q-1 -3 -1 -5q-2 -39 2 -46q7 -18 27 -18q19 0 26 20q8 17 4 59q0 1 -1 4q-1 2 -1 3t-1 3q-2 2 -1 3q11 1 19 -9q2 -2 0 -6
q-1 -2 -1 -8v-27zM158 187l-23 -26q-7 -8 -14 -8q-6 1 -7 9q-1 7 9 12l32 17q2 2 4 0t-1 -4zM147 147q10 -1 11 -11q-1 -11 -11 -12q-9 1 -10 12q1 10 10 11zM110 147q9 -1 10 -11q-1 -10 -10 -12q-10 1 -11 12q1 10 11 11z" />
    <glyph glyph-name="uni01DA" unicode="&#x1da;" 
d="M173 66v-18q1 -41 -3 -38q-10 1 -14 13q-10 -9 -30 -10q-25 1 -36 22q-6 7 -5 62q0 6 -2 10q-2 3 -2 6q9 2 22 -11q0 -1 -1 -3t-1 -3v-3q-1 -3 -1 -5q-2 -39 2 -46q7 -18 27 -18q19 0 26 20q8 17 4 59q0 1 -1 4q-1 2 -1 3t-1 3q-2 2 -1 3q11 1 19 -9q2 -2 0 -6
q-1 -2 -1 -8v-27zM128 167l22 22q1 3 4 2q1 -2 0 -5l-17 -33h-18l-18 33q-1 3 1 4t4 -1zM147 147q10 -1 11 -11q-1 -11 -11 -12q-9 1 -10 12q1 10 10 11zM110 147q9 -1 10 -11q-1 -10 -10 -12q-10 1 -11 12q1 10 11 11z" />
    <glyph glyph-name="uni01DC" unicode="&#x1dc;" 
d="M173 66v-18q1 -41 -3 -38q-10 1 -14 13q-10 -9 -30 -10q-25 1 -36 22q-6 7 -5 62q0 6 -2 10q-2 3 -2 6q9 2 22 -11q0 -1 -1 -3t-1 -3v-3q-1 -3 -1 -5q-2 -39 2 -46q7 -18 27 -18q19 0 26 20q8 17 4 59q0 1 -1 4q-1 2 -1 3t-1 3q-2 2 -1 3q11 1 19 -9q2 -2 0 -6
q-1 -2 -1 -8v-27zM146 156l-30 17q-8 4 -9 10q1 8 7 8q6 1 13 -7l22 -23q2 -3 1 -5q-2 -2 -4 0zM147 147q10 -1 11 -11q-1 -11 -11 -12q-9 1 -10 12q1 10 10 11zM110 147q9 -1 10 -11q-1 -10 -10 -12q-10 1 -11 12q1 10 11 11z" />
    <glyph glyph-name="uni01F9" unicode="&#x1f9;" 
d="M79 119q11 1 25 -10q0 -2 -1 -8q1 4 -1 -2q13 17 32 17q43 0 43 -39q-1 -18 -1 -40q0 -26 -6 -27q-11 7 -11 20q4 12 4 20q0 12 -1 26q-1 29 -28 28q-22 -2 -33 -25q0 -3 1 -9q1 -21 1 -32q0 -25 -6 -28q-12 5 -14 20q7 28 2 70q0 6 -3 10q0 1 -1 3q-4 5 -2 6zM144 131
l-29 20q-10 6 -9 13q-1 6 7 9q8 0 14 -9l21 -30q2 -2 0 -4q-1 -1 -4 1z" />
    <glyph glyph-name="uni0251" unicode="&#x251;" 
d="M105 56q0 -23 12 -27q23 -2 32 28v41q-42 -5 -44 -42zM148 108q-1 3 -3 5l-1 1q-1 2 0 4q15 0 22 -12q1 -4 -1 -7q-2 -4 -2 -12q0 -33 3 -59q0 -21 -6 -20q-13 5 -13 14q0 1 1 2q1 4 1 9q-13 -23 -36 -21q-24 2 -24 39q2 50 59 57z" />
    <glyph glyph-name="uni0261" unicode="&#x261;" 
d="M177 31q-1 -51 -46 -55q-32 -3 -51 18q-6 6 -4 8q3 3 8 -1q19 -18 49 -13q27 7 30 36v5q-22 -20 -55 -14q-28 8 -29 43q2 47 51 51q14 1 29 -3q0 1 -1 2q-4 8 -3 9q15 1 25 -10q0 -3 -1 -8q-2 -4 -2 -14v-54zM110 29q34 -10 54 17q0 9 -1 27v21q-16 7 -32 5
q-33 -3 -36 -36q-2 -21 15 -34z" />
    <glyph glyph-name="caron" unicode="&#x2c7;" 
d="M126 144l22 24q2 2 4 1t1 -4l-18 -36h-17l-18 36q-1 3 0 4q2 1 5 -2z" />
    <glyph glyph-name="uni02C9" unicode="&#x2c9;" 
d="M105 157h47q6 0 7 -7q-1 -7 -7 -7h-47q-10 7 0 14z" />
    <glyph glyph-name="Alpha" unicode="&#x391;" 
d="M97 0h-56v8h22l63 176h9l60 -176h20v-8h-71v8h21l-20 57h-53l-20 -57h25v-8zM143 73l-23 69h-1l-25 -69h49z" />
    <glyph glyph-name="Beta" unicode="&#x392;" 
d="M53 182h76q63 -2 66 -42q0 -36 -45 -44v-3q51 -7 52 -45q-1 -47 -67 -48h-82v8h23v166h-23v8zM104 90v-82h32q37 -3 34 42q0 40 -37 40h-29zM104 174v-76h25q39 -2 37 38q1 39 -35 38h-27z" />
    <glyph glyph-name="Gamma" unicode="&#x393;" 
d="M133 0h-75v8h23v166h-23v8h139v-48h-7q-2 41 -48 40h-32v-166h23v-8z" />
    <glyph glyph-name="uni0394" unicode="&#x394;" 
d="M130 184l75 -184h-155l74 184h6zM117 147l-49 -124h99z" />
    <glyph glyph-name="Epsilon" unicode="&#x395;" 
d="M201 0h-147v8h23v166h-23v8h140v-45h-7q-4 39 -51 37h-30v-78h7q32 -1 33 30h6v-70h-6q-1 34 -33 32h-7v-80h42q42 -2 47 45h6v-53z" />
    <glyph glyph-name="Zeta" unicode="&#x396;" 
d="M196 0h-138v9l110 165h-50q-36 0 -43 -37h-7l3 45h126v-12l-108 -162h63q32 -1 38 44h7z" />
    <glyph glyph-name="Eta" unicode="&#x397;" 
d="M112 0h-74v8h22v166h-22v8h74v-8h-24v-76h78v76h-23v8h74v-8h-22v-166h22v-8h-74v8h23v82h-78v-82h24v-8z" />
    <glyph glyph-name="Theta" unicode="&#x398;" 
d="M105 62h-8v69h8v-23h46v23h7v-69h-7v23h-46v-23zM128 -3q-78 7 -86 93q7 88 86 94q78 -6 85 -94q-8 -87 -85 -93zM128 4q52 -1 51 86q2 90 -51 88q-54 2 -52 -88q-1 -87 52 -86z" />
    <glyph glyph-name="Iota" unicode="&#x399;" 
d="M169 0h-82v8h26v166h-26v8h82v-8h-27v-166h27v-8z" />
    <glyph glyph-name="Kappa" unicode="&#x39a;" 
d="M117 0h-77v8h24v166h-24v8h77v-8h-25v-79l84 79h-29v8h64v-8h-23l-72 -67l86 -99h13v-8h-72v8h25l-76 86v-86h25v-8z" />
    <glyph glyph-name="Lambda" unicode="&#x39b;" 
d="M94 0h-52v8h19l64 176h6l63 -176h19v-8h-72v8h23l-46 134l-48 -134h24v-8z" />
    <glyph glyph-name="Mu" unicode="&#x39c;" 
d="M78 0h-57v8h26v166h-25v8h59l48 -138h1l47 138h57v-8h-25v-166h25v-8h-77v8h24v164h-1l-59 -172h-6l-60 174h-1v-166h24v-8z" />
    <glyph glyph-name="Nu" unicode="&#x39d;" 
d="M93 0h-56v8h23v166h-22v8h53l95 -137h1v129h-25v8h56v-8h-23v-179h-7l-119 173h-1v-160h25v-8z" />
    <glyph glyph-name="Xi" unicode="&#x39e;" 
d="M60 25h140l4 21h7l-13 -63h-8l5 17h-140l-4 -17h-7l13 63h8zM61 182h140l4 17h7l-12 -60h-9l5 18h-141l-4 -18h-7l13 60h8zM60 57l14 69h7l-3 -20h106l5 20h8l-15 -69h-7l4 24h-107l-4 -24h-8z" />
    <glyph glyph-name="Omicron" unicode="&#x39f;" 
d="M128 -3q-78 7 -86 93q7 88 86 94q78 -6 85 -94q-8 -87 -85 -93zM128 4q52 -1 51 86q2 90 -51 88q-54 2 -52 -88q-1 -87 52 -86z" />
    <glyph glyph-name="Pi" unicode="&#x3a0;" 
d="M112 0h-74v8h22v166h-22v8h179v-8h-22v-166h22v-8h-74v8h23v166h-78v-166h24v-8z" />
    <glyph glyph-name="Rho" unicode="&#x3a1;" 
d="M131 0h-79v8h24v166h-24v8h84q64 -2 67 -46q-3 -50 -70 -53h-28v-75h26v-8zM105 174v-83h25q44 -1 42 42q2 43 -39 41h-28z" />
    <glyph glyph-name="Sigma" unicode="&#x3a3;" 
d="M182 0h-132v2l92 79l-92 96v5h116q4 0 4 3q0 4 -2 12h7l15 -48h-8q-7 28 -26 25h-67l78 -82l-79 -67h101l8 24h8l-20 -64h-8z" />
    <glyph glyph-name="Tau" unicode="&#x3a4;" 
d="M167 0h-78v8h24v166h-17q-27 1 -39 -40h-8l6 48h146l6 -48h-8q-1 1 -2 4q-13 37 -38 36h-17v-166h25v-8z" />
    <glyph glyph-name="Upsilon" unicode="&#x3a5;" 
d="M164 0h-75v8h23v72l-36 67q-1 2 -3 5q-7 14 -14 13q-5 0 -10 -6q-3 -3 -4 -3q-3 0 -3 5q6 20 27 21q17 1 28 -19l40 -75l30 70q9 24 25 24q18 -2 21 -24q0 -5 -2 -5t-5 5q-5 11 -14 11q-12 1 -18 -16l-33 -72v-73h23v-8z" />
    <glyph glyph-name="Phi" unicode="&#x3a6;" 
d="M91 182h74v-8h-23v-24q76 -6 75 -60q-2 -53 -75 -57v-25h23v-8h-74v8h22v25q-73 4 -75 57q-1 54 75 60v24h-22v8zM113 40v103q-48 -2 -50 -53q2 -47 50 -50zM142 143v-103q49 2 50 50q0 51 -50 53z" />
    <glyph glyph-name="Chi" unicode="&#x3a7;" 
d="M98 0h-58v8h23l51 79l-55 87h-17v8h70v-8h-20l40 -63l42 63h-22v8h53v-8h-22l-46 -70l60 -96h18v-8h-72v8h21l-45 71l-46 -71h25v-8z" />
    <glyph glyph-name="Psi" unicode="&#x3a8;" 
d="M113 58v116h-23v8h75v-8h-23v-116q19 2 26 15q6 9 11 50q2 38 25 35q23 -1 24 -34h-8q0 19 -8 19q-7 1 -8 -15q-7 -74 -62 -77v-43h23v-8h-75v8h23v43q-54 3 -61 77q-2 16 -8 15q-7 0 -9 -19h-8q2 33 25 34q22 3 24 -35q5 -40 11 -50q7 -13 26 -15z" />
    <glyph glyph-name="uni03A9" unicode="&#x3a9;" 
d="M110 0h-61l-15 46h7l8 -23h43q-44 42 -43 84q5 73 79 77q73 -5 78 -77q0 -42 -42 -84h43l7 23h8l-15 -46h-61q29 54 29 110q-1 67 -47 68q-46 -1 -47 -68q0 -56 29 -110z" />
    <glyph glyph-name="alpha" unicode="&#x3b1;" 
d="M172 108h7q3 1 3 -5q1 -27 -19 -59q0 -2 1 -7q4 -26 17 -25q4 0 10 3q3 2 4 2q3 0 3 -3q-8 -13 -26 -15q-17 -1 -25 23q-19 -23 -44 -23q-44 2 -46 53q5 54 51 59q38 1 50 -53q11 16 10 40q0 11 4 10zM111 104q-29 -2 -30 -56q1 -39 25 -39q19 0 37 22q-3 13 -9 45
q-6 28 -23 28z" />
    <glyph glyph-name="beta" unicode="&#x3b2;" 
d="M87 -53h-20v171q2 52 53 54q51 -2 53 -46q1 -26 -31 -38v-1q46 -7 46 -44q-2 -46 -55 -48q-27 0 -46 19v-67zM87 123v-78q2 -34 42 -36q34 0 34 37q-1 31 -31 34h-8q-5 -1 -9 -1q-9 1 -10 8q1 10 11 11q2 0 6 -1q6 -1 10 -1q19 0 18 28q-1 39 -30 40q-32 -1 -33 -41z" />
    <glyph glyph-name="gamma" unicode="&#x3b3;" 
d="M153 30q12 25 18 63q3 23 11 21q8 0 8 -12q0 -26 -32 -92q-1 -4 -2 -5q0 -13 -2 -41q0 -16 -13 -16q-10 0 -10 12q0 16 15 45q-2 7 -6 20q-12 45 -30 60q-7 7 -18 7q-16 0 -19 -15q0 -5 -4 -5q-3 1 -4 8q2 31 29 33q39 2 59 -83z" />
    <glyph glyph-name="delta" unicode="&#x3b4;" 
d="M80 150q1 27 31 28q38 -2 57 -44q0 -2 -3 -2q-2 0 -9 6q-5 5 -9 8q-22 18 -41 18q-16 0 -17 -12q-7 -7 42 -32q49 -28 50 -69q-2 -50 -54 -52q-49 3 -53 55q2 43 51 51q-3 2 -9 5q-37 20 -36 40zM129 97q-29 0 -29 -46q1 -43 29 -44q29 0 29 44q-1 44 -29 46z" />
    <glyph glyph-name="epsilon" unicode="&#x3b5;" 
d="M111 58v1q-23 4 -23 23q2 27 45 29q47 -2 48 -25q0 -12 -12 -12q-7 0 -13 12q-9 18 -23 18q-20 -1 -22 -27q1 -13 12 -14q4 0 11 1q5 1 7 1q10 0 10 -9q0 -8 -10 -8q-3 0 -10 2q-8 1 -11 1q-19 0 -19 -26q1 -19 23 -20q24 -1 36 24q4 8 8 8q7 -1 8 -8q-6 -30 -53 -32
q-46 1 -48 30q0 25 36 31z" />
    <glyph glyph-name="zeta" unicode="&#x3b6;" 
d="M130 -2h-12q-35 -1 -34 35q-1 26 41 101h-6q-20 1 -21 17q1 19 21 23q3 0 3 -3q0 -1 -4 -4q-2 -1 -3 -2q-7 -4 -7 -12q1 -11 13 -12q9 0 21 13q10 12 17 12q9 0 9 -9q-1 -12 -19 -18q-1 -1 -4 -2q-14 -4 -16 -14q-21 -53 -22 -78q-2 -31 32 -29q34 1 33 -28
q-2 -34 -40 -36q-28 1 -30 15q0 9 8 9q6 0 14 -4q10 -6 20 -6q16 1 17 16q1 17 -31 16z" />
    <glyph glyph-name="eta" unicode="&#x3b7;" 
d="M102 0v63q0 32 -18 31q-14 0 -16 -18q0 -6 -3 -5q-4 0 -4 11q1 28 25 29q22 0 26 -25h1q11 25 38 25q44 -1 44 -45v-104q1 -16 -12 -15q-12 -1 -11 11v110q0 33 -22 32q-24 -1 -25 -39v-61h-23z" />
    <glyph glyph-name="theta" unicode="&#x3b8;" 
d="M128 -5q-46 5 -50 88q4 83 50 88q45 -6 50 -88q-5 -82 -50 -88zM152 83h-49v-15q0 -65 25 -66q24 0 24 66v15zM103 92h49v19q-1 52 -24 54q-24 -2 -25 -54v-19z" />
    <glyph glyph-name="iota" unicode="&#x3b9;" 
d="M119 109v-78q0 -15 16 -15q13 0 14 19q1 11 4 10q6 0 5 -15q0 -31 -29 -31q-32 0 -32 37v73h22z" />
    <glyph glyph-name="kappa" unicode="&#x3ba;" 
d="M93 0h-23v109h23v-52q22 8 39 36q9 18 23 18q15 0 15 -13t-15 -13q-1 0 -4 1h-5q-4 0 -16 -13q-4 -5 -6 -6l41 -53q6 -9 16 -9q4 0 4 -4q1 -4 -18 -4q-16 0 -25 11l-35 44q-5 -5 -14 -7v-45z" />
    <glyph glyph-name="lambda" unicode="&#x3bb;" 
d="M115 89l-24 -89h-25l43 104q-19 44 -27 52q-2 4 -7 8q-3 3 -3 4q0 3 3 3q21 0 51 -55q2 -4 3 -5q14 -27 31 -72q10 -32 17 -29q7 1 8 4l1 1q1 2 2 2t1 -5q-1 -14 -19 -15q-19 0 -28 26l-26 66h-1z" />
    <glyph glyph-name="uni03BC" unicode="&#x3bc;" 
d="M157 109v-73q0 -23 16 -23q17 0 18 22q1 6 4 6q4 1 4 -12q0 -32 -26 -32q-22 0 -27 27h-1q-8 -28 -33 -27q-21 0 -32 25h-1q0 -7 1 -21q1 -20 1 -32q1 -24 -12 -22q-13 -2 -12 22q0 19 3 47q0 6 1 19q2 29 2 45v29h22v-69q2 -26 26 -27q25 -3 23 41v55h23z" />
    <glyph glyph-name="nu" unicode="&#x3bd;" 
d="M99 102h-28v8l50 1v-94q42 27 44 59q0 5 -3 13t-3 12q0 9 12 10q13 0 13 -23q-7 -55 -82 -91q-3 0 -3 4v101z" />
    <glyph glyph-name="xi" unicode="&#x3be;" 
d="M121 80q-34 5 -34 30q1 25 44 35q-26 2 -26 18q2 13 16 15q5 0 5 -3q0 -2 -3 -4q-4 -4 -4 -8q1 -11 15 -12q5 0 14 7q8 6 12 6q7 -1 8 -9q0 -11 -22 -12q-34 -3 -35 -32q1 -25 22 -26q10 0 21 4q7 3 10 3q9 0 9 -10t-10 -10q-2 0 -7 1q-10 2 -19 2q-31 -3 -33 -31
q0 -21 14 -27q6 -3 22 -4q17 -1 24 -5q12 -8 12 -24q-1 -31 -40 -32q-27 2 -28 16q0 6 5 6q4 0 12 -4q12 -7 22 -7q19 1 20 16q2 19 -38 17q-49 2 -50 43q1 30 42 41z" />
    <glyph glyph-name="omicron" unicode="&#x3bf;" 
d="M128 111q52 -4 55 -57q-3 -53 -55 -57q-52 3 -55 57q3 54 55 57zM128 105q-29 -1 -30 -51q1 -49 30 -50q28 1 29 50q-1 50 -29 51z" />
    <glyph glyph-name="pi" unicode="&#x3c0;" 
d="M204 111v-22h-38q0 -15 6 -41q4 -22 4 -31q1 -20 -13 -20t-14 20q0 5 3 21q6 31 6 51h-43q0 -30 3 -57q1 -12 1 -17q-2 -17 -14 -18q-13 0 -14 17q0 10 8 38t8 37h-21q-24 0 -28 -27h-7q3 47 38 49h115z" />
    <glyph glyph-name="rho" unicode="&#x3c1;" 
d="M100 6v-53q2 -7 -12 -6q-12 -1 -11 6v108q1 48 49 50q51 -3 53 -60q-2 -52 -51 -54q-16 0 -28 9zM125 5q29 -1 28 48q1 52 -28 51q-27 1 -26 -51q-1 -49 26 -48z" />
    <glyph glyph-name="sigma" unicode="&#x3c3;" 
d="M199 111v-20h-44q12 -13 12 -37q-3 -54 -55 -57q-53 3 -56 57q3 54 56 57h87zM112 105q-29 -1 -30 -51q0 -49 30 -50q29 1 30 50q-1 50 -30 51z" />
    <glyph glyph-name="tau" unicode="&#x3c4;" 
d="M110 111h69v-22h-43q0 -22 7 -58q3 -13 3 -16q0 -18 -14 -18t-14 18q0 3 3 16q7 36 7 58h-27q-18 1 -17 -24h-7v10q-1 36 33 36z" />
    <glyph glyph-name="upsilon" unicode="&#x3c5;" 
d="M97 47v33q0 16 -13 16q-5 0 -9 -6q-3 -5 -6 -5q-2 1 -2 4q3 20 27 22q28 -2 28 -34l-1 -35q-3 -34 20 -32q28 3 31 42q0 17 -8 34q-5 9 -5 15q1 10 11 11q16 -1 18 -33q-2 -79 -54 -80q-38 0 -37 48z" />
    <glyph glyph-name="phi" unicode="&#x3c6;" 
d="M124 -52l-2 51q-65 5 -69 57q3 48 65 55q-1 25 -1 49q-1 18 11 17q12 1 11 -17v-24q-1 -16 -1 -25q62 -7 65 -55q-4 -52 -69 -57l-2 -51h-8zM122 6l-4 98q-38 -3 -40 -48q3 -46 44 -50zM137 104l-3 -98q40 3 43 50q-1 45 -40 48z" />
    <glyph glyph-name="chi" unicode="&#x3c7;" 
d="M140 34l21 -51q12 -30 22 -27q10 0 10 -3q-1 -6 -20 -6q-24 -4 -38 39l-13 30q-16 -16 -39 -59q-4 -10 -8 -10q-5 0 -5 6q1 22 47 74l-14 36q-17 48 -33 40q-7 0 -7 3q1 6 21 7q24 2 35 -31l16 -37h1q23 29 40 64q3 4 6 4q4 0 4 -6q-3 -24 -46 -73z" />
    <glyph glyph-name="psi" unicode="&#x3c8;" 
d="M134 -1l-2 -52h-9l-1 52q-57 5 -59 55q0 18 11 36v1q-3 -2 -8 -2q-9 1 -10 11q1 10 12 11q19 1 20 -31q1 -5 1 -18v-23q1 -33 32 -32q0 10 -1 42q-3 105 -3 113q1 7 11 8q10 0 10 -8q0 -10 -3 -113q-1 -32 -1 -42q31 -1 33 32v41q3 32 20 31q12 0 12 -11t-10 -11
q-5 0 -7 2l-1 -1q11 -18 11 -36q-2 -50 -58 -55z" />
    <glyph glyph-name="omega" unicode="&#x3c9;" 
d="M204 49q-4 -47 -47 -50q-20 0 -29 21q-11 -21 -29 -21q-44 3 -47 50q2 50 43 62q4 0 4 -2q0 -1 -3 -4q-19 -18 -19 -52q1 -42 24 -43q17 2 19 19q0 6 -3 17q-4 14 -4 22q0 15 15 15q14 0 14 -15q0 -8 -3 -22q-3 -11 -3 -17q2 -17 19 -19q23 1 24 43q0 34 -20 52
q-3 3 -3 4q1 2 4 2q42 -12 44 -62z" />
    <glyph glyph-name="uni0401" unicode="&#x401;" 
d="M88 37v92q4 34 -22 32v5h111q1 -3 2 -26q1 -7 1 -11l-6 -1q-4 19 -9 23q-4 6 -28 6h-20q-9 2 -8 -7v-59h26q27 -4 26 21h6v-51h-6q-3 16 -6 18q-4 3 -20 3h-26v-45q0 -22 7 -26q3 -3 26 -3q25 0 32 8q6 7 12 25l7 -1q-1 -3 -4 -20l-5 -20h-122v6q31 -5 26 31zM151 176
q-12 0 -12 11q1 11 12 12q10 -1 11 -12q-1 -10 -11 -11zM103 176q-12 0 -12 11q1 11 12 12q10 -1 11 -12q-1 -10 -11 -11z" />
    <glyph glyph-name="uni0410" unicode="&#x410;" 
d="M148 0v6l8 1q13 1 9 11q-3 10 -17 45h-52q-2 -5 -10 -28q-2 -7 -3 -10q-8 -18 9 -18l8 -1v-6h-55v6q20 -2 28 26l52 136l7 2l17 -49q8 -19 22 -58q8 -23 12 -33q8 -26 27 -24v-6h-62zM121 136l-21 -63h45l-23 63h-1z" />
    <glyph glyph-name="uni0411" unicode="&#x411;" 
d="M85 37v92q4 34 -22 32v5h113q0 -12 2 -37l-6 -1q-2 17 -9 23q-5 6 -28 6h-18q-12 2 -10 -9v-50h28q57 -1 59 -46q0 -27 -23 -41q-20 -12 -50 -11h-59v6q27 -5 23 31zM123 89h-16v-52q-3 -33 24 -29q37 2 38 42q0 39 -46 39z" />
    <glyph glyph-name="uni0412" unicode="&#x412;" 
d="M64 166h68q25 0 37 -9q13 -9 13 -28q-1 -27 -33 -37q44 -9 45 -43q0 -25 -24 -39q-20 -10 -50 -10h-58v6q29 -5 24 31v92q3 35 -22 32v5zM107 150v-57h16q36 1 37 33q0 32 -37 32q-11 0 -14 -1q-2 -2 -2 -7zM121 86h-14v-56q-3 -24 22 -22q39 1 40 38q-1 39 -48 40z" />
    <glyph glyph-name="uni0413" unicode="&#x413;" 
d="M93 37v92q4 34 -22 32v5h112q0 -12 2 -37l-6 -1q-2 17 -9 23q-4 6 -28 6h-18q-12 2 -10 -9v-111q-5 -36 27 -31v-6h-71v6q27 -5 23 31z" />
    <glyph glyph-name="uni0414" unicode="&#x414;" 
d="M167 0h-80q-22 4 -27 -28l-4 -17h-6v44q-1 9 7 8h6q6 -1 10 8q22 39 22 127q2 17 -14 16l-11 3v5h134v-5q-29 2 -24 -32v-100q-3 -26 14 -22h5q7 1 7 -8v-44h-6l-5 17q-6 31 -28 28zM93 8h50q17 -2 16 19v112q3 23 -10 18h-29q-16 2 -13 -7q0 -90 -18 -131q-4 -11 4 -11z
" />
    <glyph glyph-name="uni0415" unicode="&#x415;" 
d="M88 37v92q4 34 -22 32v5h111q1 -3 2 -26q1 -7 1 -11l-6 -1q-4 19 -9 23q-4 6 -28 6h-20q-9 2 -8 -7v-59h26q27 -4 26 21h6v-51h-6q-3 16 -6 18q-4 3 -20 3h-26v-45q0 -22 7 -26q3 -3 26 -3q25 0 32 8q6 7 12 25l7 -1q-1 -3 -4 -20l-5 -20h-122v6q31 -5 26 31z" />
    <glyph glyph-name="uni0416" unicode="&#x416;" 
d="M139 129v-38q24 -1 31 10q6 5 15 25q5 12 9 19q10 25 27 25q14 0 15 -9q0 -8 -10 -9h-8q-10 0 -24 -29q-4 -7 -6 -11q-8 -15 -24 -23v-1q20 -6 31 -23q5 -9 20 -39q11 -20 28 -20v-6h-22q-18 -1 -29 23q-2 3 -6 11q-8 18 -13 26q-12 26 -34 24v-47q-4 -36 23 -31v-6h-68
v6q27 -5 23 31v47q-23 2 -35 -24q-3 -6 -11 -21l-8 -16q-11 -24 -28 -23h-23v6q17 0 28 20q4 7 10 20q8 14 10 19q10 16 31 23v1l-1 1q-15 8 -23 22l-5 10q-14 35 -24 30h-9q-9 0 -9 9t14 9q17 0 28 -25l5 -10q12 -29 19 -34q7 -11 31 -10v38q5 34 -23 32v5h68v-5
q-28 2 -23 -32z" />
    <glyph glyph-name="uni0417" unicode="&#x417;" 
d="M109 83h-3q-8 1 -9 7q1 7 9 8h3q2 0 9 -1t10 -1q25 2 26 30q-1 35 -30 36t-39 -40h-6q3 17 4 39q3 1 12 3q5 1 7 2q14 4 27 4q46 -2 49 -39q0 -18 -13 -27q-16 -10 -25 -12v-1q44 -7 45 -45q-3 -46 -63 -50q-26 1 -41 11q-10 7 -11 19q2 10 10 12q7 -1 9 -8q7 -25 34 -25
q36 2 37 39q-2 37 -32 41q-3 0 -10 -1t-9 -1z" />
    <glyph glyph-name="uni0418" unicode="&#x418;" 
d="M63 37v92q5 34 -23 32v5h68v-5q-29 2 -24 -32v-89h2l81 98q4 5 4 9q2 11 -17 14v5h61v-5q-26 2 -22 -32v-92q-4 -36 22 -31v-6h-67v6q27 -5 23 31v90h-1l-83 -97q-4 -3 -3 -11q-2 -11 17 -13v-6h-61v6q27 -5 23 31z" />
    <glyph glyph-name="uni0419" unicode="&#x419;" 
d="M127 172q-32 1 -34 21q2 8 9 9q8 0 9 -11t16 -11q17 0 17 11q1 11 9 11q8 -1 9 -9q-2 -20 -35 -21zM63 37v92q5 34 -23 32v5h68v-5q-29 2 -24 -32v-89h2l81 98q4 5 4 9q2 11 -17 14v5h61v-5q-26 2 -22 -32v-92q-4 -36 22 -31v-6h-67v6q27 -5 23 31v90h-1l-83 -97
q-4 -3 -3 -11q-2 -11 17 -13v-6h-61v6q27 -5 23 31z" />
    <glyph glyph-name="uni041A" unicode="&#x41a;" 
d="M75 37v92q5 34 -24 32v5h68v-5q-28 2 -23 -32v-38q27 -1 35 10q6 5 16 28q4 10 7 16q11 25 28 25q14 0 14 -9q0 -8 -10 -9h-7q-10 7 -30 -40q-8 -16 -25 -23v-1q22 -7 31 -23q1 -1 3 -5q11 -20 18 -34q10 -20 28 -20v-6h-23q-18 -1 -29 23q-8 19 -18 37q-13 27 -38 24
v-47q-4 -36 23 -31v-6h-68v6q29 -5 24 31z" />
    <glyph glyph-name="uni041B" unicode="&#x41b;" 
d="M79 166h125v-5q-28 2 -23 -32v-92q-4 -36 23 -31v-6h-67v6q27 -4 23 31v103q3 21 -10 17h-24q-16 2 -13 -6q0 -105 -28 -143q-9 -12 -19 -12q-3 0 -10 2q-3 1 -5 1v5q16 3 28 23q22 41 23 116q3 17 -23 18v5z" />
    <glyph glyph-name="uni041C" unicode="&#x41c;" 
d="M25 166h42l62 -131l61 131h42v-5q-29 2 -23 -32l2 -92q-4 -35 24 -31v-6h-67v6q27 -4 21 31l-1 103h-1l-62 -137h-7l-59 134l-3 -72q-1 -35 0 -46q0 -12 24 -13v-6h-60v6q21 0 22 13q3 22 4 49l3 53q8 43 -24 40v5z" />
    <glyph glyph-name="uni041D" unicode="&#x41d;" 
d="M83 92h89v37q4 34 -22 32v5h67v-5q-28 2 -23 -32v-92q-4 -36 23 -31v-6h-69v6q29 -5 24 31v45h-89v-45q-5 -36 24 -31v-6h-68v6q27 -5 23 31v92q5 34 -24 32v5h68v-5q-28 2 -23 -32v-37z" />
    <glyph glyph-name="uni041E" unicode="&#x41e;" 
d="M131 170q76 -6 81 -85q-5 -83 -86 -89q-77 6 -83 85q8 84 88 89zM187 76q-2 82 -63 86q-54 -4 -56 -74q4 -78 64 -83q53 3 55 71z" />
    <glyph glyph-name="uni041F" unicode="&#x41f;" 
d="M155 157h-54q-20 6 -17 -28v-92q-4 -36 23 -31v-6h-67v6q26 -5 22 31v92q4 34 -22 32v5h176v-5q-28 2 -23 -32v-92q-4 -36 23 -31v-6h-68v6q27 -5 23 31v92q3 34 -16 28z" />
    <glyph glyph-name="uni0420" unicode="&#x420;" 
d="M110 150v-69q5 -3 19 -3q36 1 37 41q0 39 -41 39q-12 0 -13 -1q-2 0 -2 -7zM110 73v-36q-5 -36 27 -31v-6h-71v6q26 -5 22 31v92q4 34 -21 32v5h64q30 0 43 -11q16 -13 16 -35q-2 -42 -50 -51h-11z" />
    <glyph glyph-name="uni0421" unicode="&#x421;" 
d="M199 124h-6q-11 39 -50 38q-63 -2 -66 -76q3 -78 66 -81q37 -2 55 40l6 -1l-3 -9q-6 -24 -10 -32q-2 0 -8 -2q-26 -5 -40 -5q-86 3 -92 85q6 84 97 89q17 0 39 -5q5 -1 7 -1q1 -7 2 -18q2 -14 3 -22z" />
    <glyph glyph-name="uni0422" unicode="&#x422;" 
d="M139 157v-120q-5 -36 27 -31v-6h-75v6q31 -5 26 31v120h-12q-29 0 -33 -8q-4 -4 -10 -22h-6q2 25 3 46h3q6 -8 14 -7h105q7 -1 12 7h4q0 -24 3 -44l-7 -2q-4 17 -9 24t-29 6h-16z" />
    <glyph glyph-name="uni0423" unicode="&#x423;" 
d="M49 166h60v-6l-8 -1q-11 -1 -3 -15l39 -80q17 38 31 76q7 19 -10 19l-8 1v6h56v-6q-19 2 -29 -26q-6 -14 -34 -79q-11 -24 -14 -31q-16 -32 -37 -32q-11 0 -19 8q-5 10 2 15q4 4 11 0q6 -7 15 -7q14 2 21 29q0 7 -3 13t-23 49q-18 38 -21 44q-5 16 -26 17v6z" />
    <glyph glyph-name="uni0424" unicode="&#x424;" 
d="M94 166h68v-5q-24 -1 -23 -17q70 -5 72 -60q-2 -53 -72 -60q-2 -20 23 -18v-6h-68v6q25 -1 23 18q-71 7 -73 60q2 55 72 60q1 17 -22 17v5zM138 129v-92q0 -3 1 -6q47 6 49 53q-2 48 -49 54q-1 -3 -1 -9zM117 37v92v9q-48 -6 -50 -54q2 -47 50 -53v6z" />
    <glyph glyph-name="uni0425" unicode="&#x425;" 
d="M49 166h65v-5l-8 -2q-8 -1 -9 -3q-2 -2 2 -7q6 -10 21 -33q6 -9 9 -14q8 11 28 45q4 7 3 9t-8 3l-9 2v5h57v-5q-21 0 -32 -20q-10 -12 -34 -48q28 -41 43 -66q11 -23 34 -21v-6h-68v6l7 1q8 1 9 3q2 2 -1 7q-5 8 -22 34l-15 24l-12 -21q-14 -23 -21 -36q-3 -6 -2 -8t7 -3
l10 -1v-6h-58v6q19 0 28 12q1 2 6 8q23 34 38 57q-5 9 -16 25q-15 23 -20 31q-10 22 -32 22v5z" />
    <glyph glyph-name="uni0426" unicode="&#x426;" 
d="M176 0h-136v6q27 -5 23 31v92q5 34 -23 32v5h68v-5q-28 2 -23 -32v-92q-5 -36 19 -29h48q20 -5 17 29v92q5 34 -24 32v5h68v-5q-28 2 -23 -32v-92q-2 -37 10 -30h8q7 0 7 -7v-42h-6l-5 18q-5 27 -28 24z" />
    <glyph glyph-name="uni0427" unicode="&#x427;" 
d="M183 129v-92q-5 -35 24 -31v-6h-69v6q29 -4 24 31v44l-25 -8q-7 -3 -18 -3q-30 0 -42 15q-7 10 -7 30v14q4 34 -21 32v5h65v-5q-28 2 -23 -32v-12q-1 -36 41 -36q13 0 30 7v41q5 34 -23 32v5h68v-5q-29 2 -24 -32z" />
    <glyph glyph-name="uni0428" unicode="&#x428;" 
d="M36 37v92q5 34 -23 32v5h65v-5q-25 2 -21 -32v-92q-4 -35 17 -29h27q19 -6 16 29v92q4 34 -21 32v5h63v-5q-24 2 -20 -32v-92q-3 -35 15 -29h28q19 -6 16 29v92q4 34 -21 32v5h66v-5q-29 2 -24 -32v-92q-5 -36 24 -31v-6h-230v6q27 -5 23 31z" />
    <glyph glyph-name="uni0429" unicode="&#x429;" 
d="M35 37v92q5 34 -23 32v5h65v-5q-25 2 -21 -32v-92q-4 -35 17 -29h27q19 -6 16 29v92q4 34 -21 32v5h63v-5q-24 2 -20 -32v-92q-3 -35 15 -29h28q19 -6 16 29v92q4 34 -21 32v5h66v-5q-29 2 -24 -32v-92q-2 -36 11 -30h8q7 0 7 -7v-42h-7l-4 18q-6 27 -28 24h-193v6
q27 -5 23 31z" />
    <glyph glyph-name="uni042A" unicode="&#x42a;" 
d="M109 37v110q0 10 -8 10h-3h-15q-23 1 -29 -5q-4 -5 -9 -23h-6q0 6 2 20q1 15 1 17h113v-6q-30 3 -25 -31v-31h28q57 -1 58 -46q1 -29 -22 -41q-20 -12 -50 -11h-59v6q29 -5 24 31zM130 89v-52q-3 -33 24 -29q38 1 38 42q0 39 -45 39h-17z" />
    <glyph glyph-name="uni042B" unicode="&#x42b;" 
d="M52 37v92q5 34 -24 32v5h71v-5q-30 2 -25 -32v-31h27q57 -1 58 -46q1 -29 -22 -41q-20 -12 -50 -11h-59v6q29 -5 24 31zM89 89h-15v-52q-3 -33 24 -29q37 1 37 42q0 39 -46 39zM204 129v-92q-4 -36 23 -31v-6h-68v6q27 -5 23 31v92q5 34 -23 32v5h68v-5q-28 2 -23 -32z
" />
    <glyph glyph-name="uni042C" unicode="&#x42c;" 
d="M86 37v92q5 34 -24 32v5h70v-5q-30 2 -25 -32v-31h28q57 -1 59 -46q0 -27 -23 -41q-20 -12 -50 -11h-59v6q29 -5 24 31zM123 89h-16v-52q-3 -33 24 -29q37 1 38 42q0 39 -46 39z" />
    <glyph glyph-name="uni042D" unicode="&#x42d;" 
d="M68 121h-7q1 8 4 23q1 10 2 15q32 11 50 11q79 -2 84 -81q-2 -87 -86 -93q-28 1 -49 15q-12 10 -12 20q0 12 11 12q6 0 9 -8q10 -29 46 -30q54 4 56 77l-84 -3v14l84 -2q-4 68 -59 71q-35 0 -47 -35q-1 -4 -2 -6z" />
    <glyph glyph-name="uni042E" unicode="&#x42e;" 
d="M8 166h68v-5q-28 2 -23 -32v-37h32q12 75 84 78q73 -7 78 -85q-5 -82 -81 -89q-76 6 -82 85q0 1 1 2h-32v-46q-4 -36 23 -31v-6h-68v6q27 -5 23 31v92q5 34 -23 32v5zM163 162q-52 -4 -54 -74q3 -78 61 -83q52 1 52 71q-2 82 -59 86z" />
    <glyph glyph-name="uni042F" unicode="&#x42f;" 
d="M157 37v36h-10q-15 1 -26 -17l-18 -34q-11 -24 -32 -23h-18v7q14 0 20 9q2 2 9 14q9 16 14 24q10 19 24 23q-38 11 -40 43q2 46 56 47h66v-5q-28 2 -23 -32v-92q-4 -36 23 -31v-6h-67v6q26 -5 22 31zM157 80v72q2 7 -13 6q-40 0 -41 -39q2 -39 44 -39h10z" />
    <glyph glyph-name="uni0430" unicode="&#x430;" 
d="M178 9l-26 -12q-10 1 -14 16q-4 -2 -11 -7q-16 -9 -19 -9q-28 2 -31 29q0 18 20 26q3 1 10 4q26 10 31 14v9q0 24 -21 24q-16 0 -20 -22q-3 -4 -7 -4q-10 2 -11 8q0 5 9 12q20 14 39 17q13 0 21 -6q9 -8 9 -25v-58q0 -12 8 -13q3 0 11 3zM138 21v40q-2 -1 -13 -5
q-10 -5 -13 -6q-14 -7 -13 -20q1 -17 17 -19q11 1 22 10z" />
    <glyph glyph-name="uni0431" unicode="&#x431;" 
d="M95 95q16 19 38 19q47 -4 50 -56q-4 -55 -56 -61q-51 3 -54 66q0 41 21 68q13 15 27 25q9 7 27 13q17 4 22 10q6 3 5 0q-1 -16 -13 -25q-12 -6 -32 -9t-26 -16q-6 -10 -9 -34zM126 105q-13 0 -21 -11q-10 -10 -9 -30q0 -56 35 -59q28 0 29 46q-1 50 -34 54z" />
    <glyph glyph-name="uni0432" unicode="&#x432;" 
d="M92 27v57q4 24 -17 21v6h62q37 0 37 -25q0 -18 -25 -25v-1q31 -5 32 -28q-1 -31 -55 -32h-52v6q22 -3 18 21zM112 97v-34h17q23 1 24 21q-1 19 -26 20q-18 1 -15 -7zM127 56h-15v-30q-1 -20 18 -19q27 1 28 24q-1 24 -31 25z" />
    <glyph glyph-name="uni0433" unicode="&#x433;" 
d="M83 111h86q1 -3 2 -18q1 -10 1 -14l-6 -1q-5 15 -9 20t-16 5h-11q-10 2 -8 -8v-72q-4 -19 19 -17v-6h-57v6q21 -2 18 17v65q4 18 -19 17v6z" />
    <glyph glyph-name="uni0434" unicode="&#x434;" 
d="M160 0h-64q-14 3 -17 -20l-2 -12h-6v33q-1 7 5 6h6q1 0 4 4q5 6 9 26q6 25 7 54q2 13 -13 13l-8 1v6h102v-6q-20 1 -17 -17v-64q-1 -19 9 -17h5q6 1 5 -6v-33h-6l-3 12q-2 23 -16 20zM102 8h31q16 -4 13 15v68q2 15 -12 12h-9q-15 2 -13 -12q-3 -50 -12 -77q-2 -4 -1 -5
q0 -1 3 -1z" />
    <glyph glyph-name="uni0435" unicode="&#x435;" 
d="M169 25l4 -3q-18 -23 -39 -25q-49 3 -52 54q5 58 55 63q31 -4 36 -36q1 -9 -5 -9q-14 -2 -67 -4q0 -49 42 -52q11 -1 26 12zM103 74l44 1q4 -1 4 8q-2 20 -21 22q-22 -3 -27 -31z" />
    <glyph glyph-name="uni0436" unicode="&#x436;" 
d="M100 111h54v-6q-19 1 -16 -17v-27q10 0 19 9q9 7 20 24q10 19 24 19q11 0 11 -7q-1 -8 -9 -8h-6q-9 0 -21 -18q-1 -2 -2 -3q-5 -8 -15 -15v-1q11 -2 18 -12q5 -7 16 -24q11 -19 23 -19v-6h-14q-18 -1 -26 14q-6 9 -13 24q-1 3 -2 4q-8 14 -23 13v-32q-3 -19 18 -17v-6
h-57v6q23 -2 19 17v32q-17 1 -23 -13q-3 -6 -15 -28q-8 -15 -27 -14h-14v6q12 -1 23 19q10 13 17 24q6 9 18 12v1q-9 5 -15 15q-1 1 -2 3q-11 19 -21 18h-6q-9 0 -10 8q0 6 11 7q15 0 25 -19q11 -18 19 -24q10 -10 20 -9v27q3 19 -18 17v6z" />
    <glyph glyph-name="uni0437" unicode="&#x437;" 
d="M94 76l-6 1l3 26q22 11 36 11q38 -1 40 -29q0 -8 -6 -14q-5 -4 -20 -10q30 -5 31 -29q-2 -32 -48 -35q-20 0 -36 12q-5 5 -5 12q1 8 9 9q8 0 9 -6q8 -20 26 -19q21 1 22 24q-1 26 -18 27q-2 0 -7 -1q-6 -1 -9 -1h-3q-6 1 -7 6q1 6 7 7h3q2 0 7 -1q6 -1 9 -1q13 1 14 18
q0 22 -21 23q-19 1 -30 -30z" />
    <glyph glyph-name="uni0438" unicode="&#x438;" 
d="M173 88v-65q-4 -19 20 -17v-6h-55v6q18 -1 15 17v56l-47 -55q-3 -3 -4 -7v-6q0 -3 4 -4h1l6 -1v-6h-51v6q24 -2 20 17v65q4 19 -20 17v6h56v-6q-19 1 -16 -17v-56h1l47 56q3 3 3 6v6q1 3 -5 4l-5 1v6h50v-6q-24 2 -20 -17z" />
    <glyph glyph-name="uni0439" unicode="&#x439;" 
d="M127 131q15 1 14 7q-1 1 -1 2q-1 2 -1 3q-1 8 7 9q9 -1 10 -10q-2 -18 -29 -19q-26 1 -28 19q1 9 10 10q8 -1 7 -9q0 -1 -1 -3q0 -1 -1 -2q0 -6 13 -7zM173 88v-65q-4 -19 20 -17v-6h-55v6q18 -1 15 17v56l-47 -55q-3 -3 -4 -7v-6q0 -3 4 -4h1l6 -1v-6h-51v6q24 -2 20 17
v65q4 19 -20 17v6h56v-6q-19 1 -16 -17v-56h1l47 56q3 3 3 6v6q1 3 -5 4l-5 1v6h50v-6q-24 2 -20 -17z" />
    <glyph glyph-name="uni043A" unicode="&#x43a;" 
d="M69 111h55v-6q-19 1 -16 -17v-27q10 0 19 9q9 7 20 24q10 19 24 19q11 0 11 -7q-1 -8 -9 -8h-6q-9 0 -20 -16q-2 -3 -3 -4q-4 -8 -14 -16v-1q10 -2 17 -12q5 -7 16 -24q11 -19 23 -19v-6h-14q-18 -1 -27 14l-8 16t-7 13q-6 13 -22 12v-32q-3 -19 18 -17v-6h-57v6
q21 -2 18 17v65q3 19 -18 17v6z" />
    <glyph glyph-name="uni043B" unicode="&#x43b;" 
d="M90 111h97v-6q-22 1 -18 -17v-65q-3 -19 18 -17v-6h-57v6q22 -1 19 17v68q2 14 -10 12h-12q-12 2 -10 -11q-3 -63 -24 -88q-7 -7 -12 -7q-3 0 -12 3v5q16 7 26 28q12 24 12 57q3 15 -17 15v6z" />
    <glyph glyph-name="uni043C" unicode="&#x43c;" 
d="M169 111h36v-6q-23 2 -18 -20v-60q-4 -21 18 -19v-6h-54v6q21 -3 18 19v67l-45 -90h-4l-39 88l-3 -41q-1 -28 0 -33q0 -9 18 -10v-6h-46v6q15 -1 17 10q2 8 3 30l2 36q5 27 -16 23v6h34l38 -82z" />
    <glyph glyph-name="uni043D" unicode="&#x43d;" 
d="M102 62h52v26q3 18 -17 17v6h53v-6q-19 1 -16 -17v-65q-3 -18 17 -17v-6h-54v6q20 -1 17 17v31h-52v-31q-3 -18 17 -17v-6h-54v6q20 -1 17 17v65q3 18 -17 17v6h53v-6q-19 1 -16 -17v-26z" />
    <glyph glyph-name="uni043E" unicode="&#x43e;" 
d="M131 5q30 1 30 46q-3 52 -36 55q-29 -3 -31 -45q2 -53 37 -56zM129 -3q-52 3 -57 55q3 55 56 62q52 -4 56 -57q-3 -54 -55 -60z" />
    <glyph glyph-name="uni043F" unicode="&#x43f;" 
d="M63 111h129v-6q-21 2 -18 -17v-65q-3 -19 18 -17v-6h-55v6q19 -1 16 17v67q2 15 -11 13h-28q-14 2 -12 -13v-67q-3 -18 16 -17v-6h-54v6q21 -2 18 17v65q4 19 -19 17v6z" />
    <glyph glyph-name="uni0440" unicode="&#x440;" 
d="M106 116v-18l6 3q15 8 24 11q3 2 8 2q39 -2 43 -46q-2 -58 -65 -71q-8 0 -16 5v-38q-5 -18 23 -17v-5h-61v5q22 -1 18 17v120q4 19 -18 17v5q13 2 38 10zM106 90v-71q8 -9 26 -10q33 5 35 44q-1 45 -36 47q-12 0 -25 -10z" />
    <glyph glyph-name="uni0441" unicode="&#x441;" 
d="M172 27l3 -3q-18 -25 -41 -27q-49 3 -53 54q0 28 23 48q18 14 42 15q15 -1 22 -7q3 -2 3 -5q-1 -10 -8 -12q-1 0 -5 2q-12 11 -26 11q-30 -4 -31 -41q1 -44 40 -49q13 -1 31 14z" />
    <glyph glyph-name="uni0442" unicode="&#x442;" 
d="M138 103v-80q-3 -19 18 -17v-6h-57v6q22 -1 19 17v80h-10q-13 0 -18 -5q-5 -7 -8 -20h-6l2 33h99l2 -32l-6 -1q-2 13 -8 20q-4 5 -18 5h-9z" />
    <glyph glyph-name="uni0443" unicode="&#x443;" 
d="M120 110v-5l-8 -1q-7 -1 -2 -12l25 -62q5 12 20 58q2 4 2 5q5 11 -4 10l-9 2v5h45v-5q-15 0 -21 -18q-10 -21 -30 -71q-18 -42 -29 -58q-8 -13 -17 -13q-8 1 -12 12q1 6 7 7q17 3 29 25q1 2 2 5q3 8 4 10q2 3 0 7q-21 56 -31 75q-5 20 -22 19v5h51z" />
    <glyph glyph-name="uni0444" unicode="&#x444;" 
d="M138 97v-83q7 -6 18 -7q30 0 30 45q0 55 -32 55q-9 0 -16 -10zM138 181v-73q10 6 22 6q46 -4 50 -56q-3 -55 -52 -60q-10 0 -20 5v-36q-4 -17 19 -16v-6h-59v6q23 -1 20 16v37q-12 -6 -23 -6q-45 5 -49 56q3 57 52 60q13 0 20 -6v43q4 19 -20 17v5q12 2 36 7q3 1 4 1z
M118 14v83q-8 9 -19 10q-28 -1 -30 -45q0 -54 33 -55q9 1 16 7z" />
    <glyph glyph-name="uni0445" unicode="&#x445;" 
d="M70 111h51v-6l-5 -1q-8 -1 -3 -10l17 -24l6 9q5 9 8 14q4 6 3 9q0 2 -5 3h-5v6h47v-6q-20 2 -31 -16l-2 -2q-3 -4 -17 -24l26 -40q7 -18 28 -17v-6h-55v6l5 1q5 1 6 3t-2 6l-20 30q-1 -2 -4 -7q-8 -13 -13 -20q-7 -12 1 -12l8 -1v-6h-47v6q19 -1 31 18q3 4 9 13
q7 11 11 16l-23 35q-8 18 -25 17v6z" />
    <glyph glyph-name="uni0446" unicode="&#x446;" 
d="M152 20v68q3 18 -17 17v6h54v-6q-19 1 -16 -17v-65q-1 -20 8 -17h6q5 1 5 -5v-35h-7l-2 10q-3 26 -21 24h-99v6q21 -2 18 17v65q3 19 -18 17v6h53v-6q-17 1 -14 -17v-68q-2 -14 11 -12h28q13 -2 11 12z" />
    <glyph glyph-name="uni0447" unicode="&#x447;" 
d="M169 88v-65q-3 -18 18 -17v-6h-57v6q23 -2 19 17v27q-2 0 -7 -1q-12 -2 -19 -2q-21 -1 -30 7q-8 9 -8 23v11q3 18 -17 17v6h52v-6q-18 1 -15 -17v-13q0 -21 23 -21q11 0 21 3v31q3 18 -14 17v6h52v-6q-21 1 -18 -17z" />
    <glyph glyph-name="uni0448" unicode="&#x448;" 
d="M47 23v65q4 19 -19 17v6h56v-6q-20 2 -17 -17v-68q-2 -14 12 -12h27q14 -2 12 12v68q3 19 -17 17v6h54v-6q-20 2 -17 -17v-68q-2 -14 12 -12h26q14 -2 12 12v68q4 19 -17 17v6h55v-6q-21 2 -18 -17v-65q-3 -18 19 -17v-6h-199v6q23 -2 19 17z" />
    <glyph glyph-name="uni0449" unicode="&#x449;" 
d="M47 23v65q3 19 -19 17v6h56v-6q-20 2 -17 -17v-68q-2 -14 12 -12h26q14 -2 12 12v68q4 19 -17 17v6h54v-6q-20 2 -17 -17v-68q-2 -14 12 -12h27q14 -2 12 12v68q3 19 -17 17v6h55v-6q-22 2 -18 -17v-65q-1 -20 8 -17h6q6 1 6 -5v-35h-8l-2 10q-2 26 -21 24h-169v6
q22 -1 19 17z" />
    <glyph glyph-name="uni044A" unicode="&#x44a;" 
d="M129 88v-22h20q46 0 46 -31q-1 -35 -53 -35h-52v6q23 -2 19 17v68q3 15 -10 12h-9q-11 0 -15 -5t-8 -25l-7 1q0 6 2 20q1 15 1 17h83v-6q-20 1 -17 -17zM129 59v-42q-1 -11 13 -10q31 1 31 28q0 24 -34 24h-10z" />
    <glyph glyph-name="uni044B" unicode="&#x44b;" 
d="M172 23v65q4 18 -19 17v6h57v-6q-22 1 -18 -17v-65q-3 -19 18 -17v-6h-57v6q23 -2 19 17zM83 88v-22h21q46 0 46 -31q-1 -34 -52 -35h-53v6q22 -1 19 17v65q3 18 -18 17v6h56v-6q-22 1 -19 -17zM83 59v-42q-1 -11 15 -10q30 1 30 28q0 24 -34 24h-11z" />
    <glyph glyph-name="uni044C" unicode="&#x44c;" 
d="M113 88v-22h21q46 0 46 -31q-1 -35 -53 -35h-52v6q22 -1 19 17v65q3 18 -18 17v6h56v-6q-22 1 -19 -17zM113 59v-42q-1 -11 14 -10q30 0 30 28q0 24 -33 24h-11z" />
    <glyph glyph-name="uni044D" unicode="&#x44d;" 
d="M81 77l5 29q1 0 2 1q19 7 34 7q52 -2 55 -57q-4 -55 -58 -60q-23 1 -36 12q-5 8 -5 11q1 10 10 10q6 0 7 -6q9 -20 26 -19q32 1 33 50l-47 -3v13l47 -3q-3 43 -35 44q-22 0 -32 -30z" />
    <glyph glyph-name="uni044E" unicode="&#x44e;" 
d="M162 5q29 1 29 46q-2 53 -36 55q-28 -4 -30 -45q2 -53 37 -56zM41 105v6h56v-6q-21 2 -18 -17v-28h24q7 49 55 54q52 -4 56 -57q-3 -55 -55 -60q-52 3 -57 55h-23v-29q-4 -19 19 -17v-6h-56v6q21 -1 18 17v65q3 18 -19 17z" />
    <glyph glyph-name="uni044F" unicode="&#x44f;" 
d="M148 56v41q2 9 -12 7q-26 -1 -27 -24q1 -11 10 -20q7 -4 20 -4h9zM148 23v26h-9q-12 0 -18 -7q-3 -4 -9 -18q-2 -5 -3 -8q-5 -16 -20 -16h-18v6h2q8 1 11 5q5 5 11 19q7 18 18 22q-25 7 -25 28q1 30 40 31h56v-6q-19 2 -16 -17v-65q-3 -19 17 -17v-6h-54v6q20 -2 17 17z
" />
    <glyph glyph-name="uni0451" unicode="&#x451;" 
d="M169 25l4 -3q-18 -23 -39 -25q-49 3 -52 54q5 58 55 63q31 -4 36 -36q1 -9 -5 -9q-14 -2 -67 -4q0 -49 42 -52q11 -1 26 12zM103 74l44 1q4 -1 4 8q-2 20 -21 22q-22 -3 -27 -31zM153 129q-10 1 -11 12q1 10 11 11q11 -1 12 -11q-1 -11 -12 -12zM109 129q-11 0 -11 12
q1 10 11 11q10 -1 11 -11q-1 -11 -11 -12z" />
    <glyph glyph-name="uni1E3F" unicode="&#x1e3f;" 
d="M45 119q12 1 24 -10q1 -3 -1 -9q2 5 0 -1q12 17 31 17q24 1 36 -19q14 20 38 20q38 0 38 -44v-9q1 -19 0 -27q-1 -24 -6 -27q-10 5 -11 20q1 4 2 9q1 6 2 11q2 57 -26 55q-21 -1 -30 -25q-1 -23 0 -43q-1 -26 -7 -28q-11 7 -11 20q3 8 3 20t-1 27q-3 27 -27 28
q-18 0 -32 -23q0 -3 1 -10q1 -22 1 -33q0 -26 -7 -28q-11 5 -13 20q7 28 2 70q0 3 -2 7q-1 2 -1 3t-1 3q-4 5 -2 6zM151 164l-23 -28q-7 -8 -13 -8q-7 1 -8 8q0 9 9 14l32 18q2 2 4 1q1 -2 -1 -5z" />
    <glyph glyph-name="emdash" unicode="&#x2014;" 
d="M0 92h255v-11h-255v11z" />
    <glyph glyph-name="uni2016" unicode="&#x2016;" 
d="M111 -28h-11v236h11v-236zM155 -28h-11v236h11v-236z" />
    <glyph glyph-name="quoteleft" unicode="&#x2018;" 
d="M205 199l3 -3q-20 -17 -19 -34h6q16 -1 16 -17q-2 -14 -18 -15q-19 2 -20 23q4 28 32 46z" />
    <glyph glyph-name="quoteright" unicode="&#x2019;" 
d="M51 130l-3 3q20 16 19 34h-6q-16 1 -16 17q2 14 18 15q19 -2 20 -23q1 -31 -32 -46z" />
    <glyph glyph-name="quotedblleft" unicode="&#x201c;" 
d="M232 198l3 -2q-2 -3 -6 -8q-13 -14 -13 -23q0 -2 6 -4q4 -1 5 -2q10 -6 6 -18q-4 -9 -16 -7q-36 19 15 64zM179 198l3 -2q-2 -2 -5 -6q-13 -16 -13 -25q0 -2 6 -4q3 -1 4 -2q10 -6 7 -17q-4 -10 -16 -8q-37 19 14 64z" />
    <glyph glyph-name="quotedblright" unicode="&#x201d;" 
d="M24 134l-3 2q1 1 3 4q16 15 16 27q0 1 -7 3q-3 1 -4 1q-10 6 -6 18q4 11 16 9q36 -21 -15 -64zM77 134l-3 2l2 2q16 16 16 29q0 1 -7 3q-2 1 -3 1q-10 6 -7 18q4 11 16 9q37 -20 -14 -64z" />
    <glyph glyph-name="ellipsis" unicode="&#x2026;" 
d="M212 102q16 -1 17 -15q0 -15 -16 -16q-14 1 -16 15q1 15 15 16zM126 102q16 -1 17 -15q0 -15 -16 -16q-14 1 -16 15q1 15 15 16zM42 103q15 -1 17 -15q-1 -15 -16 -16q-15 1 -17 15q1 15 16 16z" />
    <glyph glyph-name="perthousand" unicode="&#x2030;" 
d="M13 133q2 40 29 43q27 -4 30 -43q-2 -40 -30 -44q-28 2 -29 44zM26 133q0 -31 17 -32q15 0 15 32q0 30 -15 31q-17 -1 -17 -31zM135 182q10 -4 10 -25q-1 -2 -3 -3t-3 -2l-2 -1q-4 -4 -6 -8q-12 -15 -84 -120q-12 -18 -17 -17q-5 12 1 22q29 30 95 133l3 6q1 3 2 4
q2 10 4 11zM107 54q2 41 29 44q28 -3 30 -44q-1 -41 -30 -43q-28 2 -29 43zM121 54q1 -32 16 -32q15 1 15 32t-15 32q-16 0 -16 -32zM183 55q2 42 29 44q29 -2 30 -44q-1 -41 -30 -43q-28 4 -29 43zM197 55q0 -30 16 -31q15 2 16 31q0 31 -16 32q-15 0 -16 -32z" />
    <glyph glyph-name="minute" unicode="&#x2032;" 
d="M33 112l-6 2l11 43q4 18 12 18q9 0 9 -9q-1 -7 -5 -15z" />
    <glyph glyph-name="second" unicode="&#x2033;" 
d="M40 113l-4 2l12 42q6 19 13 17q10 0 9 -9q0 -8 -6 -15zM10 112l-5 2l10 43q4 18 12 18q10 0 10 -9q-1 -8 -6 -15z" />
    <glyph glyph-name="uni203B" unicode="&#x203b;" 
d="M41 12l80 81l-76 77q-4 4 -1 8q3 3 7 -1l78 -77l80 80q3 3 6 -2q1 -4 -2 -7l-77 -78l78 -79q3 -8 -5 -8l-80 80l-80 -80q-8 -3 -8 6zM61 112q18 -1 19 -19q-1 -18 -19 -19q-17 1 -18 19q1 18 18 19zM129 43q17 -1 18 -19q-2 -17 -18 -19q-17 2 -19 19q1 18 19 19z
M195 112q17 -1 18 -19q-1 -18 -18 -19q-18 1 -19 19q1 18 19 19zM129 181q17 -1 18 -19q-1 -18 -18 -19q-18 1 -19 19q1 18 19 19z" />
    <glyph glyph-name="uni203E" unicode="&#x203e;" 
d="M0 217h256v-10h-256v10z" />
    <glyph glyph-name="Euro" unicode="&#x20ac;" horiz-adv-x="215" 
d="M18 119h21q20 55 87 57q39 1 62 -19q5 -5 -5 -10q-13 -4 -18 1q-13 17 -38 15q-52 0 -72 -44h93q9 -6 0 -13h-96q-1 -5 -1 -11q-1 -7 0 -13h88q5 0 5 -6q0 -7 -5 -7h-85q15 -44 70 -46q39 0 62 27q8 8 12 4q3 -4 -5 -14q-27 -31 -70 -31q-68 3 -86 60h-19q-7 7 0 13h17
q-1 3 -1 8q0 9 2 16h-18q-7 7 0 13z" />
    <glyph glyph-name="uni2103" unicode="&#x2103;" 
d="M206 148q-12 14 -36 14q-60 -5 -65 -68q4 -67 65 -72q34 0 56 28q7 8 11 4q1 -4 -6 -14q-24 -33 -62 -31q-76 5 -81 83q5 79 83 84q36 1 57 -20q-1 -13 -22 -8zM47 165q-22 -2 -24 -25q1 -24 24 -25q22 1 23 25q-1 23 -23 25zM47 176q33 -2 35 -36q-2 -33 -35 -36
q-34 2 -36 36q2 34 36 36z" />
    <glyph glyph-name="uni2116" unicode="&#x2116;" 
d="M33 35q-5 -24 -12 -26q-11 8 -9 23q5 14 6 50q1 44 -3 84q8 7 24 3q3 -3 4 -7q2 -6 6 -13q37 -66 70 -116q6 30 1 121q0 2 -2 7q-1 2 -1 3l-2 4q-3 5 -1 6q14 0 24 -11q2 -3 0 -8q-2 -4 -2 -14q2 -56 2 -103q1 -25 -7 -26q-12 -5 -22 8q-29 44 -77 127q4 -71 1 -112z
M151 87q3 50 48 54q44 -4 47 -53q-3 -49 -46 -53q-45 4 -49 52zM166 93q0 -43 35 -46q27 3 31 36q1 43 -35 46q-28 -2 -31 -36zM171 24h57q5 0 5 -6t-5 -6h-57q-7 6 0 12z" />
    <glyph glyph-name="uni2160" unicode="&#x2160;" 
d="M166 -1v-7h-76v7h24v189h-24v7h76v-7h-24v-189h24z" />
    <glyph glyph-name="uni2161" unicode="&#x2161;" 
d="M61 -8v7h22v188h-22v8h134v-8h-23v-188h23v-7h-134zM147 -1v188h-39v-187z" />
    <glyph glyph-name="uni2162" unicode="&#x2162;" 
d="M87 186v-185h28v185h-28zM140 186v-185h29v185h-29zM216 194v-8h-22v-185h22v-8h-176v8h21v185h-21v8h176z" />
    <glyph glyph-name="uni2163" unicode="&#x2163;" 
d="M139 197v-7h-21l44 -152h1l41 152h-24v7h49v-7h-18l-55 -200h-6l-58 200h-19v-189h22v-7h-69v7h22v189h-22v7h113z" />
    <glyph glyph-name="uni2164" unicode="&#x2164;" 
d="M42 189v7h72v-7h-23l48 -150h1l45 150h-25v7h54v-7h-20l-60 -198h-8l-64 198h-20z" />
    <glyph glyph-name="uni2165" unicode="&#x2165;" 
d="M230 197v-7h-22v-189h22v-7h-69v7h21v189h-18l-55 -200h-7l-58 200h-19v7h65v-7h-19l43 -151l42 151h-23v7h97z" />
    <glyph glyph-name="uni2166" unicode="&#x2166;" 
d="M132 -6v8h18v187h-15l-44 -199h-6l-46 199h-16v8h53v-8h-16l35 -150h1l33 150h-19v8h122v-8h-18v-187h18v-7zM194 2v187h-24v-187h24z" />
    <glyph glyph-name="uni2167" unicode="&#x2167;" 
d="M186 188v-184h20v184h-20zM146 188v-184h22v184h-22zM240 195v-7h-15v-184h15v-8h-128v8h17v184h-14l-40 -196h-4l-43 196h-13v7h47v-7h-15l32 -148l30 148h-17v7h148z" />
    <glyph glyph-name="uni2168" unicode="&#x2168;" 
d="M23 -7v6h22v188h-22v8h118v-8h-19l36 -71l36 71h-21v8h50v-8h-20l-40 -79l52 -109h17v-6h-65v6h20l-40 81l-40 -81h22v-6h-106zM98 -1l44 89l-48 99h-25v-188h29z" />
    <glyph glyph-name="uni2169" unicode="&#x2169;" 
d="M98 0v-7h-58v7h23l50 88l-54 99h-19v7h73v-7h-21l40 -71l40 71h-23v7h56v-7h-23l-45 -80l60 -107h19v-7h-74v7h23l-46 81l-46 -81h25z" />
    <glyph glyph-name="uni216A" unicode="&#x216a;" 
d="M150 186l-41 -79l54 -106h24v185h-37zM235 193v-7h-22v-185h22v-7h-121v7h20l-42 80l-41 -80h23v-7h-53v7h21l45 87l-48 98h-18v7h66v-7h-19l37 -70l36 70h-21v7h115z" />
    <glyph glyph-name="uni216B" unicode="&#x216b;" 
d="M154 -1v188h-31l-33 -79l44 -109h20zM94 -8v7h17l-34 82l-33 -82h18v-7h-43v7h18l36 89l-39 99h-15v8h54v-8h-16l29 -71l30 71h-17v8h137v-8h-18v-188h18v-7h-142zM199 -1v188h-24v-188h24z" />
    <glyph glyph-name="uni2170" unicode="&#x2170;" 
d="M159 -23h-63v9h21v141h-21v9h10q18 0 35 5v-155h18v-9zM113 190q2 14 15 15q14 -2 16 -15q-1 -15 -16 -16q-14 1 -15 16z" />
    <glyph glyph-name="uni2171" unicode="&#x2171;" 
d="M123 -23h-62v9h20v143h-20v9h10q17 0 34 4v-156h18v-9zM78 190q2 14 15 15q14 -2 16 -15q-1 -15 -16 -16q-14 1 -15 16zM195 -23h-62v9h19v143h-19v9h9q20 0 35 4v-156h18v-9zM149 190q1 14 15 15q13 -2 15 -15q-1 -15 -15 -16q-14 1 -15 16z" />
    <glyph glyph-name="uni2172" unicode="&#x2172;" 
d="M91 -23h-60v9h20v141h-20v10h10q22 0 33 4v-155h17v-9zM47 190q1 13 14 14q14 -2 15 -14q-1 -14 -15 -15q-13 1 -14 15zM157 -23h-60v9h20v141h-20v10h10q22 0 33 4v-155h17v-9zM113 190q1 13 15 14q13 -2 14 -14q-1 -14 -14 -15q-14 1 -15 15zM224 -23h-61v9h20v141h-20
v10h10q23 0 34 4v-155h17v-9zM179 190q1 13 15 14q13 -2 14 -14q-1 -14 -14 -15q-14 1 -15 15z" />
    <glyph glyph-name="uni2173" unicode="&#x2173;" 
d="M94 -23h-59v9h19v137h-19v10h9q23 0 34 4v-151h16v-9zM51 190q1 13 15 14q14 -2 15 -14q-1 -14 -15 -15q-14 1 -15 15zM115 127h-14v9h53v-9h-15l29 -112h1l30 112h-19v9h40v-9h-13l-42 -150h-10z" />
    <glyph glyph-name="uni2174" unicode="&#x2174;" 
d="M66 127h-19v9h72v-9h-21l40 -112l40 112h-25v9h55v-9h-19l-55 -150h-15z" />
    <glyph glyph-name="uni2175" unicode="&#x2175;" 
d="M221 -23h-58v9h18v141h-18v9h9q19 0 32 4v-154h17v-9zM179 193q1 12 14 13q13 -2 15 -13q-1 -15 -15 -16q-13 1 -14 16zM48 127h-14v9h52v-9h-15l29 -113l30 113h-19v9h40v-9h-14l-40 -151h-10z" />
    <glyph glyph-name="uni2176" unicode="&#x2176;" 
d="M28 129h-12v8h47v-8h-14l26 -115h1l27 115h-17v8h36v-8h-12l-37 -153h-9zM239 -22h-54v9h18v142h-18v8h9q15 0 30 5v-155h15v-9zM201 193q1 10 12 11q12 -2 14 -11q-1 -13 -14 -14q-12 0 -12 14zM182 -22h-53v8h17v142h-17v9h8q15 0 30 4v-155h15v-8zM143 192q1 11 13 12
q13 -1 14 -12q-1 -12 -14 -13q-12 1 -13 13z" />
    <glyph glyph-name="uni2177" unicode="&#x2177;" 
d="M12 126h-11v10h43v-10h-13l23 -112h1l25 112h-16v10h34v-10h-12l-34 -150h-8zM254 -23h-49v9h16v136h-16v10h9q18 0 27 4v-150h13v-9zM218 193q2 9 13 10q10 -2 12 -10q-1 -12 -12 -13q-12 1 -13 13zM152 -23h-49v9h16v136h-16v10h8q19 0 28 4v-150h13v-9zM117 192
q1 10 12 11q11 -2 12 -11q-1 -11 -12 -12q-12 0 -12 12zM204 -23h-50v9h17v136h-17v10h8q19 0 27 4v-150h15v-9zM168 192q1 10 12 11q11 -2 12 -11q-1 -11 -12 -12q-12 0 -12 12z" />
    <glyph glyph-name="uni2178" unicode="&#x2178;" 
d="M91 -23h-67v9h23v137h-23v9h12q18 0 36 4v-150h19v-9zM43 190q2 14 15 15q15 -2 17 -15q-1 -15 -17 -16q-14 1 -15 16zM144 -14v-9h-46v9h19l36 66l-39 74h-16v10h59v-10h-17l27 -50l28 50h-18v10h45v-10h-17l-33 -58l43 -82h16v-9h-59v9h16l-31 58l-30 -58h17z" />
    <glyph glyph-name="uni2179" unicode="&#x2179;" 
d="M104 -14v-9h-56v9h23l44 66l-47 75h-20v10h72v-10h-21l32 -51l33 51h-22v10h56v-10h-22l-40 -58l52 -83h19v-9h-71v9h20l-36 58l-37 -58h21z" />
    <glyph glyph-name="arrowleft" unicode="&#x2190;" 
d="M256 94v-8h-210q20 -24 20 -46q-29 37 -66 50q40 16 66 50q-1 -25 -20 -46h210z" />
    <glyph glyph-name="arrowup" unicode="&#x2191;" 
d="M132 -38h-9v209q-22 -20 -45 -19q34 24 50 65q13 -37 49 -65q-26 0 -45 19v-209z" />
    <glyph glyph-name="arrowright" unicode="&#x2192;" 
d="M0 94h210q-19 17 -20 46q26 -34 66 -50q-39 -14 -66 -50q-2 21 20 46h-210v8z" />
    <glyph glyph-name="arrowdown" unicode="&#x2193;" 
d="M132 217v-209q18 17 45 19q-35 -26 -49 -65q-16 41 -50 65q20 2 45 -19v209h9z" />
    <glyph glyph-name="element" unicode="&#x2208;" 
d="M206 23v-14h-92q-64 2 -65 78q1 76 65 78h92v-15h-93q-46 -3 -47 -56h136v-13h-136q0 -57 46 -58h94z" />
    <glyph glyph-name="product" unicode="&#x220f;" 
d="M203 161v-160q-1 -23 25 -21v-6h-79v6q26 -1 25 21v177h-92v-177q-1 -23 25 -21v-6h-79v6q26 -2 25 21v160q0 25 -25 25v6h199v-6q-24 0 -24 -25z" />
    <glyph glyph-name="summation" unicode="&#x2211;" 
d="M195 190l2 -41h-6q0 1 -1 3q-3 28 -38 26h-67l69 -91l-75 -87h95q26 -3 35 29h6q-9 -29 -11 -57q-2 0 -7 1q-9 2 -13 2h-129q-2 0 -7 -1h-7l89 102l-89 116q14 -2 27 -2h127z" />
    <glyph glyph-name="radical" unicode="&#x221a;" 
d="M124 -2l127 219h5v-10l-137 -236h-5l-82 156l-29 -16l-3 8l47 27z" />
    <glyph glyph-name="proportional" unicode="&#x221d;" 
d="M47 82q2 46 41 48q28 0 42 -36q17 35 49 34q25 -2 28 -8q0 -3 -4 -4h-6q-5 1 -8 1q-30 0 -49 -38q-1 -3 -2 -4q16 -26 48 -26q12 0 17 2q5 0 5 -3q-7 -11 -28 -12q-33 -1 -45 33q-17 -37 -46 -35q-40 1 -42 48zM55 80q1 -30 30 -31q21 0 38 34q2 3 3 5q-13 26 -37 26
q-32 -2 -34 -34z" />
    <glyph glyph-name="infinity" unicode="&#x221e;" 
d="M49 82q2 48 39 50q27 -2 37 -30q18 31 43 30q35 -4 38 -47q-2 -48 -38 -50q-25 0 -37 31q-18 -31 -43 -31q-37 2 -39 47zM200 86q-3 26 -29 28q-24 2 -37 -41q15 -20 35 -20q27 3 31 33zM55 81q2 -26 30 -28q25 -1 37 41q-16 20 -37 20q-28 -2 -30 -33z" />
    <glyph glyph-name="angle" unicode="&#x2220;" 
d="M41 1l121 160l9 -7l-109 -143h153v-10h-174z" />
    <glyph glyph-name="uni2225" unicode="&#x2225;" 
d="M108 -32h-9l126 249h9zM31 -32h-10l126 249h10z" />
    <glyph glyph-name="logicaland" unicode="&#x2227;" 
d="M200 -8h-14l-55 186l-62 -184h-13l66 200h17z" />
    <glyph glyph-name="logicalor" unicode="&#x2228;" 
d="M69 192l58 -187l60 187h13l-64 -203h-17l-64 203h14z" />
    <glyph glyph-name="intersection" unicode="&#x2229;" 
d="M191 0v92q-1 57 -63 59q-62 -1 -63 -59v-92h-16v92q2 71 79 74q75 -3 78 -74v-92h-15z" />
    <glyph glyph-name="union" unicode="&#x222a;" 
d="M191 68v93h15v-91q-2 -73 -78 -75q-77 2 -79 75v91h16v-93q1 -57 63 -58q62 1 63 58z" />
    <glyph glyph-name="integral" unicode="&#x222b;" 
d="M122 35l3 84q3 56 26 58q8 0 8 -7q0 -5 -6 -5q-2 0 -5 4q-2 2 -3 2q-8 3 -11 -51l-3 -86q-2 -87 -27 -83q-7 0 -7 7q0 5 5 5q3 0 6 -4q1 -2 2 -2q10 -5 12 78z" />
    <glyph glyph-name="uni222E" unicode="&#x222e;" 
d="M133 88l-1 -47q19 3 20 24q-1 19 -19 23zM122 42l2 46q-19 -2 -20 -23q0 -20 18 -23zM134 120v-26q23 -5 24 -29q-1 -27 -27 -30v-1q-1 -36 -6 -56q-5 -27 -21 -27q-7 0 -7 7q0 5 5 5q3 0 6 -4q1 -2 2 -2q10 -1 11 59l1 19q-23 5 -24 30q1 26 26 29l1 25q4 58 26 58
q8 0 8 -7q0 -5 -6 -5q-2 0 -5 4q-2 2 -3 2q-10 2 -11 -51z" />
    <glyph glyph-name="therefore" unicode="&#x2234;" 
d="M72 56q13 -1 14 -13q-1 -13 -14 -14q-12 1 -14 14q1 12 14 13zM128 144q12 -1 13 -14q0 -12 -13 -13q-13 1 -14 13q1 13 14 14zM183 56q13 -1 14 -13q-1 -13 -14 -14q-12 1 -13 14q1 13 13 13z" />
    <glyph glyph-name="uni2235" unicode="&#x2235;" 
d="M72 110q-13 1 -14 13q1 13 14 14q13 -1 14 -14q-1 -12 -14 -13zM128 23q-14 0 -14 14q1 12 14 13q13 0 13 -13q0 -14 -13 -14zM183 110q-12 1 -13 13q1 14 13 14q13 -1 14 -14q-1 -12 -14 -13z" />
    <glyph glyph-name="uni2236" unicode="&#x2236;" 
d="M128 140q12 -1 13 -12q-1 -11 -13 -12q-12 0 -13 12q0 12 13 12zM128 57q12 -1 13 -12q-1 -11 -13 -12q-12 1 -13 12q1 11 13 12z" />
    <glyph glyph-name="uni2237" unicode="&#x2237;" 
d="M171 140q12 -1 13 -13q-1 -12 -13 -13q-12 1 -13 13q1 12 13 13zM171 49q11 -1 13 -12q-1 -13 -13 -14q-12 1 -13 14q2 11 13 12zM84 140q13 -2 14 -13q-1 -11 -14 -13q-11 2 -12 13q1 11 12 13zM84 49q12 -1 14 -12q-1 -12 -14 -14q-11 2 -12 14q2 11 12 12z" />
    <glyph glyph-name="similar" unicode="&#x223c;" 
d="M187 108q1 4 5 4t4 -4q-3 -32 -33 -33q-13 0 -39 11q-9 4 -20 8q-30 10 -35 -17q-1 -4 -5 -4t-4 4q1 33 33 33q16 0 38 -11q15 -9 27 -11q24 -5 29 20z" />
    <glyph glyph-name="uni223D" unicode="&#x223d;" 
d="M226 49h-11q-2 53 -40 55q-18 0 -43 -26q-28 -29 -50 -29q-49 0 -53 65h11q2 -54 40 -55q20 0 45 27q27 28 50 28q48 -2 51 -65z" />
    <glyph glyph-name="approxequal" unicode="&#x2248;" 
d="M212 118v-14q-22 -18 -42 -17q-16 0 -44 11q-26 10 -39 10q-21 0 -44 -20v14q22 17 43 17q16 0 44 -11q26 -9 39 -9q20 0 43 19zM212 79v-13q-21 -19 -42 -18q-16 0 -44 11q-26 10 -39 10q-16 0 -40 -16q-3 -2 -4 -3v13q21 18 43 18q16 0 44 -11q26 -10 39 -10
q18 0 43 19z" />
    <glyph glyph-name="uni224C" unicode="&#x224c;" 
d="M228 12h-205v10h205v-10zM228 48h-205v11h205v-11zM226 86h-11q-2 53 -40 55q-18 0 -43 -26q-28 -29 -50 -29q-49 0 -53 66h11q1 -54 40 -55q20 0 45 27q27 28 50 28q49 -2 51 -66z" />
    <glyph glyph-name="notequal" unicode="&#x2260;" 
d="M101 57h-58v12h67l21 26h-88v12h97l45 60h13l-46 -60h61v-12h-69l-21 -26h90v-12h-99l-44 -60h-14z" />
    <glyph glyph-name="equivalence" unicode="&#x2261;" 
d="M212 111h-169v11h169v-11zM212 41h-169v11h169v-11zM212 76h-169v11h169v-11z" />
    <glyph glyph-name="lessequal" unicode="&#x2264;" 
d="M214 58v-15l-173 48v16l173 48v-15l-152 -41zM214 12v-15l-173 48v15z" />
    <glyph glyph-name="greaterequal" unicode="&#x2265;" 
d="M214 60v-15l-173 -48v15zM214 107v-16l-173 -48v15l152 41l-152 41v15z" />
    <glyph glyph-name="uni226E" unicode="&#x226e;" 
d="M113 60l23 53l-78 -31zM213 20v-11l-94 37l-21 -49h-12l23 53l-66 27v11l99 39l16 40h12l-15 -34l58 22v-11l-64 -26l-26 -62z" />
    <glyph glyph-name="uni226F" unicode="&#x226f;" 
d="M98 -3h-12l15 36l-58 -24v12l64 26l26 61l-90 36v12l95 -38l20 49h12l-23 -53l66 -26v-11l-98 -39zM143 104l-22 -52l77 30z" />
    <glyph glyph-name="uni2299" unicode="&#x2299;" 
d="M128 76q-13 2 -15 15q2 14 15 15q14 -1 15 -15q-1 -13 -15 -15zM128 9q75 7 82 82q-7 75 -82 82q-75 -6 -82 -82q7 -75 82 -82zM128 184q85 -8 93 -93q-8 -85 -93 -93q-85 8 -93 93q8 85 93 93z" />
    <glyph glyph-name="perpendicular" unicode="&#x22a5;" 
d="M51 11h71v150h12v-150h70v-10h-153v10z" />
    <glyph glyph-name="uni22EF" unicode="&#x22ef;" 
d="M212 102q16 -1 17 -15q0 -15 -16 -16q-14 1 -16 15q1 15 15 16zM126 102q16 -1 17 -15q0 -15 -16 -16q-14 1 -16 15q1 15 15 16zM42 103q15 -1 17 -15q-1 -15 -16 -16q-15 1 -17 15q1 15 16 16z" />
    <glyph glyph-name="uni2312" unicode="&#x2312;" 
d="M234 58l-1 -2q-4 0 -14 11q-39 42 -88 44q-3 2 -7 0q-49 -2 -87 -43q-11 -12 -15 -12l-1 2q37 72 106 72q72 1 107 -72z" />
    <glyph glyph-name="uni2460" unicode="&#x2460;" 
d="M128 209q-106 -10 -116 -116q10 -105 116 -115q106 9 115 115q-10 106 -115 116zM128 216q112 -10 122 -123q-10 -112 -122 -122q-113 10 -123 122q11 113 123 123zM171 9h-85v6h31v142q2 13 -19 11h-13v6h12q7 0 26 2q12 1 18 1v-162h30v-6z" />
    <glyph glyph-name="uni2461" unicode="&#x2461;" 
d="M128 209q-106 -10 -116 -116q10 -105 116 -115q106 9 115 115q-10 106 -115 116zM128 216q112 -10 122 -123q-10 -112 -122 -122q-113 10 -123 122q11 113 123 123zM181 51l-3 -42h-104v12l21 22q64 59 60 86q-3 37 -37 40q-27 -2 -32 -26v-4q6 3 11 3q11 -1 12 -13
q-1 -14 -12 -15q-17 1 -18 21q2 40 50 42q50 -4 53 -43q4 -22 -47 -65l-44 -40h69q15 -3 14 22h7z" />
    <glyph glyph-name="uni2462" unicode="&#x2462;" 
d="M128 209q-106 -10 -116 -116q10 -105 116 -115q106 9 115 115q-10 106 -115 116zM128 216q112 -10 122 -123q-10 -112 -122 -122q-113 10 -123 122q11 113 123 123zM136 102v-1q46 -10 46 -45q-7 -46 -62 -48q-42 1 -46 31q1 15 15 16q13 -1 14 -11q0 -11 -10 -13
q-6 -1 -6 -4q2 -11 30 -14q40 -2 38 48q-1 35 -40 36q-5 0 -10 -1q-2 -1 -3 -1q-9 0 -9 5q0 3 7 4q2 0 6 -1t6 -1q30 1 34 27q2 7 2 16q-1 27 -30 28q-18 -1 -19 -9q0 -2 4 -4q6 -3 6 -10q0 -12 -12 -12q-14 0 -14 14q4 26 43 27q44 -4 47 -37q-1 -28 -37 -40z" />
    <glyph glyph-name="uni2463" unicode="&#x2463;" 
d="M128 209q-106 -10 -116 -116q10 -105 116 -115q106 9 115 115q-10 106 -115 116zM128 216q112 -10 122 -123q-10 -112 -122 -122q-113 10 -123 122q11 113 123 123zM135 155l-60 -94h60v94zM70 54v14l71 109h16v-116h23v20h5v-45h-5v18h-23v-39h18v-6h-59v6h19v39h-65z
" />
    <glyph glyph-name="uni2464" unicode="&#x2464;" 
d="M128 209q-106 -10 -116 -116q10 -105 116 -115q106 9 115 115q-10 106 -115 116zM128 216q112 -10 122 -123q-10 -112 -122 -122q-113 10 -123 122q11 113 123 123zM101 174h40q24 -1 22 7h5q0 -26 -25 -26h-48l-3 -49q18 6 35 6q49 -7 55 -51q-6 -53 -64 -55
q-40 1 -44 32q0 15 14 15q13 -1 14 -13q0 -8 -10 -11q-6 -1 -6 -4q5 -10 30 -14q39 1 40 46q-1 45 -43 47q-14 0 -28 -7q0 11 2 37q2 28 2 33q1 7 12 7z" />
    <glyph glyph-name="uni2465" unicode="&#x2465;" 
d="M128 209q-106 -10 -116 -116q10 -105 116 -115q106 9 115 115q-10 106 -115 116zM128 216q112 -10 122 -123q-10 -112 -122 -122q-113 10 -123 122q11 113 123 123zM97 93q-1 -8 -1 -23q-3 -59 31 -56q35 -1 33 56q-1 42 -29 42q-20 0 -34 -19zM171 179v-6
q-64 -8 -74 -71q18 17 38 16q46 -5 51 -54q-3 -52 -60 -56q-52 2 -56 70q9 89 101 101z" />
    <glyph glyph-name="uni2466" unicode="&#x2466;" 
d="M128 209q-106 -10 -116 -116q10 -105 116 -115q106 9 115 115q-10 106 -115 116zM128 216q112 -10 122 -123q-10 -112 -122 -122q-113 10 -123 122q11 113 123 123zM86 177h95v-4q-1 -2 -5 -9q-5 -11 -7 -14l-24 -52q-12 -26 -12 -42q0 -9 4 -17q3 -7 3 -13
q-1 -16 -15 -17q-15 1 -16 18q-1 13 10 34l47 97h-72q-8 2 -13 -19h-6z" />
    <glyph glyph-name="uni2467" unicode="&#x2467;" 
d="M128 209q-106 -10 -116 -116q10 -105 116 -115q106 9 115 115q-10 106 -115 116zM128 216q112 -10 122 -123q-10 -112 -122 -122q-113 10 -123 122q11 113 123 123zM129 93q-34 -1 -34 -40q0 -14 2 -20q6 -21 32 -21q24 1 29 21q3 6 3 20q-1 38 -32 40zM128 99
q28 2 28 38t-28 35q-29 1 -29 -35q1 -36 29 -38zM119 97q-42 9 -43 41q4 37 52 40q48 -3 52 -40q-1 -32 -44 -41q47 -10 50 -46q-4 -42 -58 -44q-54 2 -58 44q3 35 49 46z" />
    <glyph glyph-name="uni2468" unicode="&#x2468;" 
d="M128 209q-106 -10 -116 -116q10 -105 116 -115q106 9 115 115q-10 106 -115 116zM128 216q112 -10 122 -123q-10 -112 -122 -122q-113 10 -123 122q11 113 123 123zM159 93q1 7 1 24q3 59 -31 56q-35 1 -33 -56q0 -43 29 -43q17 0 34 19zM84 8v5q66 9 74 72
q-18 -18 -37 -17q-47 4 -51 55q4 52 59 56q53 -2 57 -70q-8 -89 -102 -101z" />
    <glyph glyph-name="uni2469" unicode="&#x2469;" 
d="M128 209q-106 -10 -116 -116q10 -105 116 -115q106 9 115 115q-10 106 -115 116zM128 216q112 -10 122 -123q-10 -112 -122 -122q-113 10 -123 122q11 113 123 123zM129 10h-81v6h30v142q2 12 -20 11h-11v6h11q8 0 27 2q11 1 16 1v-162h28v-6zM174 175q-32 7 -31 -80
q-1 -86 31 -79q31 -6 30 79q1 86 -30 80zM174 181q51 -5 56 -86q-5 -80 -56 -85q-51 5 -56 85q5 81 56 86z" />
    <glyph glyph-name="uni2474" unicode="&#x2474;" 
d="M58 -20l-3 -4q-52 46 -53 117q1 71 53 118l3 -4l-4 -4q-36 -31 -33 -110q-3 -78 33 -108q3 -3 4 -5zM201 -24l-4 4q1 2 4 5q36 30 33 108q3 79 -33 110l-4 4l4 4q51 -48 52 -118q-1 -71 -52 -117zM171 9h-84v6h31v142q2 12 -20 11h-13v6h13q8 0 27 2q11 1 16 1v-162h30
v-6z" />
    <glyph glyph-name="uni2475" unicode="&#x2475;" 
d="M58 -20l-3 -4q-52 46 -53 117q1 71 53 118l3 -4l-4 -4q-36 -31 -33 -110q-3 -78 33 -108q3 -3 4 -5zM201 -24l-4 4q1 2 4 5q36 30 33 108q3 79 -33 110l-4 4l4 4q51 -48 52 -118q-1 -71 -52 -117zM182 51l-4 -42h-104v12l22 22q64 60 60 86q-3 37 -37 40q-29 -2 -33 -26
l1 -2v-2q5 3 10 3q12 -1 13 -13q-1 -14 -13 -15q-17 1 -18 21q1 40 51 42q49 -4 52 -43q4 -23 -46 -65l-44 -40h69q15 -3 14 22h7z" />
    <glyph glyph-name="uni2476" unicode="&#x2476;" 
d="M58 -20l-3 -4q-52 46 -53 117q1 71 53 118l3 -4l-4 -4q-36 -31 -33 -110q-3 -78 33 -108q3 -3 4 -5zM201 -24l-4 4q1 2 4 5q36 30 33 108q3 79 -33 110l-4 4l4 4q51 -48 52 -118q-1 -71 -52 -117zM136 102v-1q46 -9 46 -45q-7 -46 -62 -48q-42 1 -46 31q1 15 16 16
q13 -1 14 -11q0 -11 -11 -13q-6 -1 -6 -4q2 -10 31 -14q39 -2 38 48q-1 35 -40 36q-5 0 -10 -1q-3 -1 -4 -1q-8 1 -8 5t7 4q2 0 6 -1t6 -1q30 1 34 27v7q1 6 1 9q-1 27 -30 28q-18 -1 -19 -9q0 -2 4 -4q7 -3 7 -10q-1 -11 -12 -12q-14 0 -14 14q4 26 42 27q44 -4 47 -37
q-1 -28 -37 -40z" />
    <glyph glyph-name="uni2477" unicode="&#x2477;" 
d="M58 -20l-3 -4q-52 46 -53 117q1 71 53 118l3 -4l-4 -4q-36 -31 -33 -110q-3 -78 33 -108q3 -3 4 -5zM201 -24l-4 4q1 2 4 5q36 30 33 108q3 79 -33 110l-4 4l4 4q51 -48 52 -118q-1 -71 -52 -117zM135 155l-60 -94h61v94h-1zM71 54v14l70 109h16v-116h23v20h6v-45h-6v18
h-23v-39h19v-6h-60v6h20v39h-65z" />
    <glyph glyph-name="uni2478" unicode="&#x2478;" 
d="M58 -20l-3 -4q-52 46 -53 117q1 71 53 118l3 -4l-4 -4q-36 -31 -33 -110q-3 -78 33 -108q3 -3 4 -5zM201 -24l-4 4q1 2 4 5q36 30 33 108q3 79 -33 110l-4 4l4 4q51 -48 52 -118q-1 -71 -52 -117zM102 174h39q25 -1 23 7h5q0 -26 -26 -26h-47l-3 -49q17 6 35 6
q48 -7 54 -51q-5 -53 -63 -55q-41 2 -45 32q1 14 15 15q13 -1 13 -13q0 -8 -9 -11q-6 -1 -6 -4q5 -10 29 -14q40 1 41 46q-1 44 -43 47q-15 0 -28 -7q0 14 3 48q1 18 1 22q0 7 12 7z" />
    <glyph glyph-name="uni2479" unicode="&#x2479;" 
d="M58 -20l-3 -4q-52 46 -53 117q1 71 53 118l3 -4l-4 -4q-36 -31 -33 -110q-3 -78 33 -108q3 -3 4 -5zM201 -24l-4 4q1 2 4 5q36 30 33 108q3 79 -33 110l-4 4l4 4q51 -48 52 -118q-1 -71 -52 -117zM97 93v-23q-3 -59 30 -56q36 -1 34 56q-1 42 -30 42q-18 0 -34 -19z
M172 179v-6q-65 -8 -74 -71q19 17 37 16q46 -4 51 -54q-3 -52 -59 -56q-53 2 -57 70q9 89 102 101z" />
    <glyph glyph-name="uni247A" unicode="&#x247a;" 
d="M58 -20l-3 -4q-52 46 -53 117q1 71 53 118l3 -4l-4 -4q-36 -31 -33 -110q-3 -78 33 -108q3 -3 4 -5zM201 -24l-4 4q1 2 4 5q36 30 33 108q3 79 -33 110l-4 4l4 4q51 -48 52 -118q-1 -71 -52 -117zM87 177h94v-4q-1 -2 -4 -9q-5 -11 -7 -14l-25 -52q-11 -27 -11 -42
q0 -9 3 -17q3 -7 3 -13q-1 -16 -15 -17q-15 1 -16 18v3q1 14 11 31l47 97h-73q-7 2 -13 -19h-6z" />
    <glyph glyph-name="uni247B" unicode="&#x247b;" 
d="M58 -20l-3 -4q-52 46 -53 117q1 71 53 118l3 -4l-4 -4q-36 -31 -33 -110q-3 -78 33 -108q3 -3 4 -5zM201 -24l-4 4q1 2 4 5q36 30 33 108q3 79 -33 110l-4 4l4 4q51 -48 52 -118q-1 -71 -52 -117zM129 93q-33 -1 -34 -40q0 -9 3 -18v-2q5 -20 31 -21q24 0 30 21q3 6 2 20
q-1 39 -32 40zM129 99q27 3 28 38q0 36 -28 35q-29 1 -29 -35t29 -38zM120 97q-43 9 -44 41q4 37 53 40q47 -3 51 -40q-1 -32 -43 -41q46 -11 49 -46q-4 -42 -57 -44q-55 2 -59 44q3 35 50 46z" />
    <glyph glyph-name="uni247C" unicode="&#x247c;" 
d="M58 -20l-3 -4q-52 46 -53 117q1 71 53 118l3 -4l-4 -4q-36 -31 -33 -110q-3 -78 33 -108q3 -3 4 -5zM201 -24l-4 4q1 2 4 5q36 30 33 108q3 79 -33 110l-4 4l4 4q51 -48 52 -118q-1 -71 -52 -117zM160 93q1 7 1 24q2 59 -32 56q-34 1 -32 -56q0 -43 28 -43q18 0 35 19z
M85 8v5q64 9 74 72q-18 -18 -38 -17q-46 5 -51 55q4 52 60 56q52 -2 56 -70q-8 -89 -101 -101z" />
    <glyph glyph-name="uni247D" unicode="&#x247d;" 
d="M58 -20l-3 -4q-52 46 -53 117q1 71 53 118l3 -4l-4 -4q-36 -31 -33 -110q-3 -78 33 -108q3 -3 4 -5zM201 -24l-4 4q1 2 4 5q36 30 33 108q3 79 -33 110l-4 4l4 4q51 -48 52 -118q-1 -71 -52 -117zM127 7h-84v6h31v142q2 12 -20 11h-13v6h12q8 0 28 2q11 1 17 1v-162h29
v-6zM169 173q-32 7 -31 -80q-1 -87 31 -80q33 -6 32 80q1 87 -32 80zM169 179q53 -5 59 -86q-5 -80 -59 -85q-53 5 -58 85q6 81 58 86z" />
    <glyph glyph-name="uni247E" unicode="&#x247e;" 
d="M58 -20l-3 -4q-52 46 -53 117q1 71 53 118l3 -4l-4 -4q-36 -31 -33 -110q-3 -78 33 -108q3 -3 4 -5zM201 -24l-4 4q1 2 4 5q36 30 33 108q3 79 -33 110l-4 4l4 4q51 -48 52 -118q-1 -71 -52 -117zM216 9h-83v6h31v142q2 12 -21 11h-12v6h12q8 0 28 2q11 1 16 1v-162h29
v-6zM125 9h-84v6h32v142q2 13 -21 12h-12v5h12q14 0 44 4v-163h29v-6z" />
    <glyph glyph-name="uni247F" unicode="&#x247f;" 
d="M58 -20l-3 -4q-52 46 -53 117q1 71 53 118l3 -4l-4 -4q-36 -31 -33 -110q-3 -78 33 -108q3 -3 4 -5zM201 -24l-4 4q1 2 4 5q36 30 33 108q3 79 -33 110l-4 4l4 4q51 -48 52 -118q-1 -71 -52 -117zM117 9h-81v6h30v142q2 12 -19 11h-12v6h11q8 0 28 2q9 1 14 1v-162h29v-6
zM222 51l-4 -42h-100v13l21 21q63 63 58 86q-3 37 -35 40q-28 -1 -32 -26l1 -2v-2q4 3 9 3q11 -1 12 -13q-1 -14 -12 -15q-15 2 -17 21q1 40 48 42q48 -4 51 -43q3 -22 -45 -65l-41 -39h65q15 -3 14 21h7z" />
    <glyph glyph-name="uni2480" unicode="&#x2480;" 
d="M58 -20l-3 -4q-52 46 -53 117q1 71 53 118l3 -4l-4 -4q-36 -31 -33 -110q-3 -78 33 -108q3 -3 4 -5zM201 -24l-4 4q1 2 4 5q36 30 33 108q3 79 -33 110l-4 4l4 4q51 -48 52 -118q-1 -71 -52 -117zM123 7h-84v6h31v142q2 12 -20 11h-13v6h12q8 0 28 2q11 1 16 1v-162h30
v-6zM180 102v-1q46 -9 46 -45q-7 -46 -62 -48q-43 1 -47 31q1 15 17 16q12 -1 13 -11q0 -11 -10 -13q-6 -1 -6 -4q2 -11 31 -14q39 -1 38 48q-2 34 -41 36q-4 0 -10 -1q-3 -1 -4 -1q-7 1 -7 5t6 4q2 0 6 -1t6 -1q30 1 34 27q2 7 2 16q-1 27 -30 28q-18 -1 -19 -9q0 -2 4 -4
q6 -3 6 -10q-1 -11 -12 -12q-14 0 -14 14q4 26 43 27q44 -4 47 -37q-1 -28 -37 -40z" />
    <glyph glyph-name="uni2481" unicode="&#x2481;" 
d="M58 -20l-3 -4q-52 46 -53 117q1 71 53 118l3 -4l-4 -4q-36 -31 -33 -110q-3 -78 33 -108q3 -3 4 -5zM201 -24l-4 4q1 2 4 5q36 30 33 108q3 79 -33 110l-4 4l4 4q51 -48 52 -118q-1 -71 -52 -117zM172 155l-60 -94h61v94h-1zM108 54v14l70 109h17v-116h22v20h6v-45h-6v18
h-22v-39h18v-6h-60v6h20v39h-65zM126 9h-84v6h31v142q2 12 -20 11h-13v6h12q8 0 28 2q11 1 17 1v-162h29v-6z" />
    <glyph glyph-name="uni2482" unicode="&#x2482;" 
d="M58 -20l-3 -4q-52 46 -53 117q1 71 53 118l3 -4l-4 -4q-36 -31 -33 -110q-3 -78 33 -108q3 -3 4 -5zM201 -24l-4 4q1 2 4 5q36 30 33 108q3 79 -33 110l-4 4l4 4q51 -48 52 -118q-1 -71 -52 -117zM124 5h-84v6h31v142q2 12 -20 11h-13v6h12q8 0 28 2q11 1 16 1v-162h30
v-6zM143 173h40q24 -1 23 7h4q0 -26 -25 -26h-47l-3 -49q17 6 35 6q49 -7 55 -51q-6 -53 -64 -55q-41 2 -45 32q1 14 15 15q13 -1 13 -13q0 -8 -10 -11q-5 -2 -5 -4q5 -10 29 -14q40 1 41 46q-1 44 -43 47q-15 0 -28 -7q0 11 2 37q2 28 2 33q1 7 11 7z" />
    <glyph glyph-name="uni2483" unicode="&#x2483;" 
d="M58 -20l-3 -4q-52 46 -53 117q1 71 53 118l3 -4l-4 -4q-36 -31 -33 -110q-3 -78 33 -108q3 -3 4 -5zM201 -24l-4 4q1 2 4 5q36 30 33 108q3 79 -33 110l-4 4l4 4q51 -48 52 -118q-1 -71 -52 -117zM140 93v-23q-3 -59 31 -56q35 -2 33 56q0 42 -29 42q-19 0 -35 -19z
M215 179v-6q-65 -8 -74 -71q19 17 37 16q47 -5 52 -54q-3 -52 -59 -56q-54 2 -58 70q9 89 102 101zM124 7h-84v6h31v142q2 12 -20 11h-13v6h12q8 0 28 2q11 1 16 1v-162h30v-6z" />
    <glyph glyph-name="uni2484" unicode="&#x2484;" 
d="M58 -20l-3 -4q-52 46 -53 117q1 71 53 118l3 -4l-4 -4q-36 -31 -33 -110q-3 -78 33 -108q3 -3 4 -5zM201 -24l-4 4q1 2 4 5q36 30 33 108q3 79 -33 110l-4 4l4 4q51 -48 52 -118q-1 -71 -52 -117zM124 9h-84v6h32v142q2 13 -21 12h-12v5h12q15 0 43 4v-163h30v-6z
M121 177h95v-4q-1 -2 -4 -9q-5 -11 -7 -14l-25 -52q-11 -27 -11 -42q0 -9 3 -17q3 -7 3 -13q-1 -16 -14 -17q-17 0 -17 18q-1 13 10 34l48 97h-72q-9 2 -14 -19h-6z" />
    <glyph glyph-name="uni2485" unicode="&#x2485;" 
d="M58 -20l-3 -4q-52 46 -53 117q1 71 53 118l3 -4l-4 -4q-36 -31 -33 -110q-3 -78 33 -108q3 -3 4 -5zM201 -24l-4 4q1 2 4 5q36 30 33 108q3 79 -33 110l-4 4l4 4q51 -48 52 -118q-1 -71 -52 -117zM171 94q-33 -1 -33 -40q0 -14 1 -20q6 -21 32 -21q25 1 30 21q2 6 2 20
q-1 39 -32 40zM170 100q28 2 29 38t-29 35q-29 1 -28 -35q1 -35 28 -38zM162 98q-43 9 -44 41q4 37 52 40q48 -3 52 -40q-1 -32 -43 -41q47 -11 50 -46q-4 -42 -59 -44q-54 2 -58 44q3 35 50 46zM122 7h-84v6h31v142q2 12 -20 11h-13v6h12q8 0 28 2q11 1 16 1v-162h30v-6z
" />
    <glyph glyph-name="uni2486" unicode="&#x2486;" 
d="M58 -20l-3 -4q-52 46 -53 117q1 71 53 118l3 -4l-4 -4q-36 -31 -33 -110q-3 -78 33 -108q3 -3 4 -5zM201 -24l-4 4q1 2 4 5q36 30 33 108q3 79 -33 110l-4 4l4 4q51 -48 52 -118q-1 -71 -52 -117zM122 7h-84v6h31v142q2 12 -20 11h-13v6h12q8 0 28 2q11 1 16 1v-162h30
v-6zM200 93q1 7 1 24q3 59 -31 56q-35 1 -33 -56q0 -43 29 -43q17 0 34 19zM125 8v5q65 9 75 72q-20 -18 -38 -17q-47 5 -52 55q4 52 60 56q53 -2 57 -70q-8 -89 -102 -101z" />
    <glyph glyph-name="uni2487" unicode="&#x2487;" 
d="M58 -20l-3 -4q-52 46 -53 117q1 71 53 118l3 -4l-4 -4q-36 -31 -33 -110q-3 -78 33 -108q3 -3 4 -5zM201 -24l-4 4q1 2 4 5q36 30 33 108q3 79 -33 110l-4 4l4 4q51 -48 52 -118q-1 -71 -52 -117zM131 52l-3 -42h-92v13l19 21q58 62 53 86q-3 37 -33 40q-24 -2 -28 -26
v-4q5 3 9 3q10 -1 11 -13q-1 -13 -11 -15q-15 1 -16 21q1 40 44 42q45 -4 47 -43q3 -23 -41 -65l-38 -39h59q14 -3 13 21h7zM180 173q-29 6 -28 -80q-1 -85 28 -80q29 -6 28 80q1 87 -28 80zM180 179q47 -5 52 -86q-5 -80 -52 -85q-46 5 -50 85q4 81 50 86z" />
    <glyph glyph-name="uni2488" unicode="&#x2488;" 
d="M131 9h-85v6h31v142q2 13 -20 11h-12v6h12q7 0 26 2q12 1 18 1v-162h30v-6zM199 7q-11 1 -12 11q1 11 12 12q11 -1 12 -12q-1 -10 -12 -11z" />
    <glyph glyph-name="uni2489" unicode="&#x2489;" 
d="M147 51l-4 -42h-104v12l21 22q65 60 61 86q-3 37 -37 40q-29 -2 -33 -26l1 -2v-2q5 3 10 3q12 -1 13 -13q-1 -14 -13 -15q-17 1 -18 21q2 40 50 42q50 -4 53 -43q4 -23 -46 -65l-44 -40h68q16 -3 15 22h7zM205 7q-11 1 -12 11q1 11 12 12q10 -1 11 -12q-1 -10 -11 -11z
" />
    <glyph glyph-name="uni248A" unicode="&#x248a;" 
d="M101 102v-1q46 -9 46 -45q-7 -46 -62 -48q-42 1 -46 31q1 15 16 16q13 -1 14 -11q0 -11 -11 -13q-6 -1 -6 -4q2 -10 31 -14q39 -2 38 48q-1 35 -40 36q-5 0 -10 -1q-3 -1 -4 -1q-8 1 -8 5q1 4 7 4q2 0 6 -1t6 -1q30 2 34 27v7q1 6 1 9q-1 27 -30 28q-18 -1 -19 -9
q0 -2 4 -4q7 -3 7 -10q-1 -11 -13 -12q-13 0 -13 14q4 26 42 27q44 -4 47 -37q-1 -28 -37 -40zM205 7q-11 1 -12 11q1 11 12 12q10 -1 11 -12q-1 -10 -11 -11z" />
    <glyph glyph-name="uni248B" unicode="&#x248b;" 
d="M102 155l-60 -94h60v94zM37 54v14l71 109h16v-116h23v20h6v-45h-6v18h-23v-39h19v-6h-60v6h19v39h-65zM206 7q-10 1 -11 11q1 11 11 12q11 -1 12 -12q-1 -10 -12 -11z" />
    <glyph glyph-name="uni248C" unicode="&#x248c;" 
d="M67 174h39q23 -1 23 7h5q0 -26 -26 -26h-48l-2 -49q17 6 35 6q48 -7 54 -51q-5 -53 -63 -55q-41 2 -45 32q1 14 15 15q12 -1 13 -13q0 -8 -9 -11q-6 -1 -6 -4q5 -10 29 -14q40 1 41 46q-1 44 -43 47q-15 0 -28 -7q0 14 3 48q1 18 1 22q0 7 12 7zM205 7q-11 1 -12 11
q1 11 12 12q10 -1 11 -12q-1 -10 -11 -11z" />
    <glyph glyph-name="uni248D" unicode="&#x248d;" 
d="M64 93q-1 -8 -1 -23q-3 -59 31 -56q35 -2 33 56q0 42 -29 42q-18 0 -34 -19zM139 179v-6q-65 -8 -74 -71q19 17 37 16q46 -4 51 -54q-3 -52 -59 -56q-53 2 -57 70q9 89 102 101zM207 7q-11 1 -12 11q1 11 12 12q10 -1 11 -12q-1 -10 -11 -11z" />
    <glyph glyph-name="uni248E" unicode="&#x248e;" 
d="M51 177h95v-4q-1 -2 -5 -9q-5 -11 -7 -14l-24 -52q-12 -26 -12 -42q0 -9 4 -17q3 -7 3 -13q-1 -16 -15 -17q-15 1 -16 18q-1 13 10 34l47 97h-72q-8 2 -13 -19h-6zM204 7q-10 1 -11 11q0 12 11 12q11 -1 12 -12q-1 -10 -12 -11z" />
    <glyph glyph-name="uni248F" unicode="&#x248f;" 
d="M96 93q-33 -1 -34 -40q0 -14 3 -20q5 -20 31 -21q24 0 30 21q2 6 2 20q-1 39 -32 40zM95 99q28 2 29 38t-29 35q-28 1 -28 -35t28 -38zM87 97q-43 9 -44 41q4 37 52 40q48 -3 52 -40q-1 -32 -43 -41q46 -11 49 -46q-4 -42 -58 -44q-54 2 -58 44q3 36 50 46zM207 7
q-11 1 -12 11q1 11 12 12q10 -1 11 -12q-1 -10 -11 -11z" />
    <glyph glyph-name="uni2490" unicode="&#x2490;" 
d="M126 93q1 7 1 24q3 59 -31 56q-35 1 -33 -56q1 -42 29 -43q19 0 34 19zM52 8v5q64 9 74 72q-18 -18 -38 -17q-46 5 -51 55q4 52 60 56q52 -2 56 -70q-8 -89 -101 -101zM207 7q-11 1 -12 11q1 11 12 12q10 -1 11 -12q-1 -10 -11 -11z" />
    <glyph glyph-name="uni2491" unicode="&#x2491;" 
d="M102 7h-84v6h31v142q1 13 -20 12h-13v5h12q13 0 45 4v-163h29v-6zM156 173q-32 6 -31 -80q-1 -86 31 -80q33 -6 32 80q1 87 -32 80zM156 179q54 -5 59 -86q-5 -80 -59 -85q-52 5 -57 85q5 81 57 86zM227 7q-11 1 -12 11q1 11 12 12q11 -1 12 -12q-1 -10 -12 -11z" />
    <glyph glyph-name="uni2492" unicode="&#x2492;" 
d="M199 9h-85v6h32v142q2 12 -21 11h-12v6h12q8 0 28 2q11 1 16 1v-162h30v-6zM108 9h-85v6h31v142q2 13 -19 12h-13v5h12q12 0 44 4v-163h30v-6zM221 7q-10 1 -11 11q1 11 11 12q12 -1 13 -12q-1 -10 -13 -11z" />
    <glyph glyph-name="uni2493" unicode="&#x2493;" 
d="M102 9h-84v6h31v142q1 13 -20 12h-13v5h12q13 0 45 4v-163h29v-6zM215 51l-4 -42h-104v12l22 22q64 60 60 86q-3 37 -37 40q-29 -2 -33 -26l1 -2v-2q5 3 10 3q12 -1 13 -13q-1 -14 -13 -15q-17 1 -18 21q1 40 51 42q49 -4 52 -43q4 -23 -46 -65l-44 -40h69q15 -3 14 22h7
zM228 7q-12 1 -13 11q1 11 13 12q10 -1 11 -12q-1 -10 -11 -11z" />
    <glyph glyph-name="uni2494" unicode="&#x2494;" 
d="M103 7h-84v6h31v142q2 13 -21 12h-12v5h12q14 0 44 4v-163h30v-6zM167 102v-1q46 -10 46 -45q-7 -46 -63 -48q-42 1 -46 31q1 15 16 16q13 -1 14 -11q0 -11 -10 -13q-6 -1 -6 -4q2 -11 30 -14q39 -2 38 48q-1 35 -40 36q-4 0 -10 -1q-3 -1 -4 -1q-8 1 -8 5t7 4q2 0 6 -1
t6 -1q30 2 34 27q1 7 1 16q0 28 -29 28q-18 -1 -19 -9q0 -2 4 -4q6 -3 6 -10q-1 -11 -12 -12q-14 0 -14 14q4 26 42 27q45 -4 48 -37q-1 -27 -37 -40zM227 7q-12 1 -13 11q1 11 13 12q10 -1 11 -12q-1 -10 -11 -11z" />
    <glyph glyph-name="uni2495" unicode="&#x2495;" 
d="M157 155l-59 -94h60v94h-1zM93 54v14l71 109h16v-116h23v20h6v-45h-6v18h-23v-39h19v-6h-60v6h19v39h-65zM105 9h-85v6h31v142q2 13 -20 12h-12v5h12q12 0 44 4v-163h30v-6zM225 7q-11 1 -12 11q1 11 12 12q11 -1 12 -12q-1 -10 -12 -11z" />
    <glyph glyph-name="uni2496" unicode="&#x2496;" 
d="M104 6h-85v5h32v143q2 12 -21 11h-12v6h12q22 0 44 3v-163h30v-5zM130 173h39q24 -1 22 7h6q0 -26 -26 -26h-48l-2 -49q17 6 35 6q48 -7 54 -51q-5 -53 -63 -55q-41 2 -45 32q1 14 15 15q12 -1 13 -13q0 -8 -10 -11q-5 -2 -5 -4q5 -10 29 -14q40 1 41 46q-1 44 -43 47
q-15 0 -28 -7q0 14 3 48q1 18 1 22q0 7 12 7zM226 7q-11 1 -12 11q0 12 12 12q11 -1 12 -12q-1 -10 -12 -11z" />
    <glyph glyph-name="uni2497" unicode="&#x2497;" 
d="M129 93v-23q-3 -59 31 -56q35 -1 33 56q-1 42 -29 42q-20 0 -35 -19zM204 179v-6q-65 -8 -74 -71q19 17 37 16q47 -5 52 -54q-3 -52 -60 -56q-53 2 -57 70q9 89 102 101zM101 7h-84v6h31v142q2 13 -21 12h-12v5h12q14 0 44 4v-163h30v-6zM229 7q-12 1 -13 11q1 11 13 12
q10 -1 11 -12q-1 -10 -11 -11z" />
    <glyph glyph-name="uni2498" unicode="&#x2498;" 
d="M107 9h-84v6h31v142q1 13 -20 12h-13v5h13q13 0 43 4v-163h30v-6zM111 177h95v-4q-1 -2 -4 -9q-5 -11 -7 -14l-25 -52q-12 -30 -12 -42q0 -9 4 -17q3 -7 3 -13q-1 -16 -15 -17q-15 1 -16 18q-1 13 10 34l47 97h-72q-8 2 -13 -19h-6zM222 7q-11 1 -12 11q1 11 12 12
q11 -1 12 -12q-1 -10 -12 -11z" />
    <glyph glyph-name="uni2499" unicode="&#x2499;" 
d="M163 94q-33 -1 -33 -40q0 -14 1 -20q6 -21 32 -21q24 0 30 21q2 6 2 20q-1 39 -32 40zM162 100q28 2 28 38q1 36 -28 35q-29 1 -28 -35q0 -36 28 -38zM153 98q-42 10 -43 41q4 37 52 40q48 -3 52 -40q-1 -31 -43 -41q46 -11 49 -46q-4 -42 -58 -44q-54 2 -58 44
q3 35 49 46zM101 7h-85v6h31v142q2 13 -20 12h-12v5h12q12 0 44 4v-163h30v-6zM229 7q-11 1 -12 11q1 11 12 12q11 -1 12 -12q-1 -10 -12 -11z" />
    <glyph glyph-name="uni249A" unicode="&#x249a;" 
d="M103 7h-85v6h31v142q2 13 -20 12h-12v5h12q12 0 44 4v-163h30v-6zM187 93q1 7 1 24q3 59 -32 56q-34 1 -32 -56q0 -43 29 -43q19 0 34 19zM113 8v5q65 9 73 72q-16 -18 -37 -17q-47 4 -51 55q4 52 59 56q53 -2 57 -70q-8 -89 -101 -101zM227 7q-11 1 -12 11q1 11 12 12
q11 -1 12 -12q-1 -10 -12 -11z" />
    <glyph glyph-name="uni249B" unicode="&#x249b;" 
d="M117 49l-4 -42h-104v13l21 21q65 62 61 85q-3 38 -37 41q-29 -2 -33 -26v-1q1 -2 1 -3q5 3 10 3q12 -1 13 -13q-1 -13 -13 -14q-17 1 -18 21q2 40 51 42q49 -4 52 -43q4 -24 -46 -66l-44 -39h68q16 -3 15 21h7zM179 173q-33 6 -32 -80q-1 -85 32 -80q33 -6 32 80
q1 87 -32 80zM179 179q52 -5 58 -86q-5 -80 -58 -85q-53 5 -58 85q5 81 58 86zM235 7q-12 1 -13 11q1 11 13 12q10 -1 11 -12q-1 -10 -11 -11z" />
    <glyph glyph-name="SF100000" unicode="&#x2500;" 
d="M0 96h256v-13h-256v13z" />
    <glyph glyph-name="uni2501" unicode="&#x2501;" 
d="M0 104h256v-29h-256v29z" />
    <glyph glyph-name="SF110000" unicode="&#x2502;" 
d="M121 217v-255h13v255h-13z" />
    <glyph glyph-name="uni2503" unicode="&#x2503;" 
d="M112 217v-255h29v255h-29z" />
    <glyph glyph-name="uni2504" unicode="&#x2504;" 
d="M14 96h56v-13h-56v13zM100 96h56v-13h-56v13zM185 96h57v-13h-57v13z" />
    <glyph glyph-name="uni2505" unicode="&#x2505;" 
d="M14 104h56v-29h-56v29zM100 104h56v-29h-56v29zM185 104h57v-29h-57v29z" />
    <glyph glyph-name="uni2506" unicode="&#x2506;" 
d="M120 204h13v-57h-13v57zM133 117v-56h-13v56h13zM133 31v-55h-13v55h13z" />
    <glyph glyph-name="uni2507" unicode="&#x2507;" 
d="M141 204v-57h-29v57h29zM141 117v-56h-29v56h29zM141 31v-55h-29v55h29z" />
    <glyph glyph-name="uni2508" unicode="&#x2508;" 
d="M12 96h40v-13h-40v13zM76 96h40v-13h-40v13zM140 96h40v-13h-40v13zM204 96h40v-13h-40v13z" />
    <glyph glyph-name="uni2509" unicode="&#x2509;" 
d="M12 104h40v-29h-40v29zM76 104h40v-29h-40v29zM140 104h40v-29h-40v29zM204 104h40v-29h-40v29z" />
    <glyph glyph-name="uni250A" unicode="&#x250a;" 
d="M133 205v-39h-13v39h13zM133 141v-39h-13v39h13zM133 77v-39h-13v39h13zM133 13v-39h-13v39h13z" />
    <glyph glyph-name="uni250B" unicode="&#x250b;" 
d="M141 205v-39h-29v39h29zM141 141v-39h-29v39h29zM141 77v-39h-29v39h29zM141 13v-39h-29v39h29z" />
    <glyph glyph-name="SF010000" unicode="&#x250c;" 
d="M256 96v-13h-122v-121h-13v134h135z" />
    <glyph glyph-name="uni250D" unicode="&#x250d;" 
d="M256 104v-29h-122v-113h-13v142h135z" />
    <glyph glyph-name="uni250E" unicode="&#x250e;" 
d="M256 96v-13h-114v-121h-29v134h143z" />
    <glyph glyph-name="uni250F" unicode="&#x250f;" 
d="M256 104v-29h-114v-113h-29v142h143z" />
    <glyph glyph-name="SF030000" unicode="&#x2510;" 
d="M0 83v13h134v-134h-13v121h-121z" />
    <glyph glyph-name="uni2511" unicode="&#x2511;" 
d="M0 104h134v-142h-13v113h-121v29z" />
    <glyph glyph-name="uni2512" unicode="&#x2512;" 
d="M0 96h142v-134h-29v121h-113v13z" />
    <glyph glyph-name="uni2513" unicode="&#x2513;" 
d="M0 104h142v-142h-29v113h-113v29z" />
    <glyph glyph-name="SF020000" unicode="&#x2514;" 
d="M134 217v-121h122v-13h-135v134h13z" />
    <glyph glyph-name="uni2515" unicode="&#x2515;" 
d="M134 217v-113h122v-29h-135v142h13z" />
    <glyph glyph-name="uni2516" unicode="&#x2516;" 
d="M142 217v-121h114v-13h-143v134h29z" />
    <glyph glyph-name="uni2517" unicode="&#x2517;" 
d="M142 217v-113h114v-29h-143v142h29z" />
    <glyph glyph-name="SF040000" unicode="&#x2518;" 
d="M0 96h121v121h13v-134h-134v13z" />
    <glyph glyph-name="uni2519" unicode="&#x2519;" 
d="M0 104h121v113h13v-142h-134v29z" />
    <glyph glyph-name="uni251A" unicode="&#x251a;" 
d="M0 96h113v121h29v-134h-142v13z" />
    <glyph glyph-name="uni251B" unicode="&#x251b;" 
d="M0 104h113v113h29v-142h-142v29z" />
    <glyph glyph-name="SF080000" unicode="&#x251c;" 
d="M134 217v-121h122v-13h-122v-121h-13v255h13z" />
    <glyph glyph-name="uni251D" unicode="&#x251d;" 
d="M134 217v-113h122v-29h-122v-113h-13v255h13z" />
    <glyph glyph-name="uni251E" unicode="&#x251e;" 
d="M142 217v-121h114v-13h-122v-121h-13v129h-8v126h29z" />
    <glyph glyph-name="uni251F" unicode="&#x251f;" 
d="M134 217v-121h122v-13h-114v-121h-29v126h8v129h13z" />
    <glyph glyph-name="uni2520" unicode="&#x2520;" 
d="M142 217v-121h114v-13h-114v-121h-29v255h29z" />
    <glyph glyph-name="uni2521" unicode="&#x2521;" 
d="M142 217v-113h114v-29h-122v-113h-13v113h-8v142h29z" />
    <glyph glyph-name="uni2522" unicode="&#x2522;" 
d="M134 217v-113h122v-29h-114v-113h-29v142h8v113h13z" />
    <glyph glyph-name="uni2523" unicode="&#x2523;" 
d="M142 217v-113h114v-29h-114v-113h-29v255h29z" />
    <glyph glyph-name="SF090000" unicode="&#x2524;" 
d="M134 217v-255h-13v121h-121v13h121v121h13z" />
    <glyph glyph-name="uni2525" unicode="&#x2525;" 
d="M134 217v-255h-13v113h-121v29h121v113h13z" />
    <glyph glyph-name="uni2526" unicode="&#x2526;" 
d="M142 217v-126h-8v-129h-13v121h-121v13h113v121h29z" />
    <glyph glyph-name="uni2527" unicode="&#x2527;" 
d="M134 217v-129h8v-126h-29v121h-113v13h121v121h13z" />
    <glyph glyph-name="uni2528" unicode="&#x2528;" 
d="M142 217v-255h-29v121h-113v13h113v121h29z" />
    <glyph glyph-name="uni2529" unicode="&#x2529;" 
d="M142 217v-142h-8v-113h-13v113h-121v29h113v113h29z" />
    <glyph glyph-name="uni252A" unicode="&#x252a;" 
d="M134 217v-113h8v-142h-29v113h-113v29h121v113h13z" />
    <glyph glyph-name="uni252B" unicode="&#x252b;" 
d="M142 217v-255h-29v113h-113v29h113v113h29z" />
    <glyph glyph-name="SF060000" unicode="&#x252c;" 
d="M0 96h256v-13h-122v-121h-13v121h-121v13z" />
    <glyph glyph-name="uni252D" unicode="&#x252d;" 
d="M0 104h134v-8h122v-13h-122v-122h-13v114h-121v29z" />
    <glyph glyph-name="uni252E" unicode="&#x252e;" 
d="M0 96h121v8h135v-29h-122v-113h-13v121h-121v13z" />
    <glyph glyph-name="uni252F" unicode="&#x252f;" 
d="M0 104h256v-29h-122v-113h-13v113h-121v29z" />
    <glyph glyph-name="uni2530" unicode="&#x2530;" 
d="M0 96h256v-13h-114v-121h-29v121h-113v13z" />
    <glyph glyph-name="uni2531" unicode="&#x2531;" 
d="M0 104h142v-8h114v-13h-114v-121h-29v113h-113v29z" />
    <glyph glyph-name="uni2532" unicode="&#x2532;" 
d="M0 96h113v8h143v-29h-114v-113h-29v121h-113v13z" />
    <glyph glyph-name="uni2533" unicode="&#x2533;" 
d="M0 104h256v-29h-114v-113h-29v113h-113v29z" />
    <glyph glyph-name="SF070000" unicode="&#x2534;" 
d="M0 96h121v121h13v-121h122v-13h-256v13z" />
    <glyph glyph-name="uni2535" unicode="&#x2535;" 
d="M134 217v-121h122v-13h-122v-8h-134v29h121v113h13z" />
    <glyph glyph-name="uni2536" unicode="&#x2536;" 
d="M134 217v-113h122v-29h-135v8h-121v13h121v121h13z" />
    <glyph glyph-name="uni2537" unicode="&#x2537;" 
d="M134 217v-113h122v-29h-256v29h121v113h13z" />
    <glyph glyph-name="uni2538" unicode="&#x2538;" 
d="M142 217v-121h114v-13h-256v13h113v121h29z" />
    <glyph glyph-name="uni2539" unicode="&#x2539;" 
d="M142 217v-121h114v-13h-114v-8h-142v29h113v113h29z" />
    <glyph glyph-name="uni253A" unicode="&#x253a;" 
d="M142 217v-113h114v-29h-143v8h-113v13h113v121h29z" />
    <glyph glyph-name="uni253B" unicode="&#x253b;" 
d="M142 217v-113h114v-29h-256v29h113v113h29z" />
    <glyph glyph-name="SF050000" unicode="&#x253c;" 
d="M134 217v-121h122v-13h-122v-121h-13v121h-121v13h121v121h13z" />
    <glyph glyph-name="uni253D" unicode="&#x253d;" 
d="M134 217v-121h122v-13h-122v-121h-13v113h-121v29h121v113h13z" />
    <glyph glyph-name="uni253E" unicode="&#x253e;" 
d="M134 217v-113h122v-29h-122v-113h-13v121h-121v13h121v121h13z" />
    <glyph glyph-name="uni253F" unicode="&#x253f;" 
d="M134 217v-113h122v-29h-122v-113h-13v113h-121v29h121v113h13z" />
    <glyph glyph-name="uni2540" unicode="&#x2540;" 
d="M142 217v-121h114v-13h-122v-121h-13v121h-121v13h113v121h29z" />
    <glyph glyph-name="uni2541" unicode="&#x2541;" 
d="M134 217v-121h122v-13h-114v-121h-29v121h-113v13h121v121h13z" />
    <glyph glyph-name="uni2542" unicode="&#x2542;" 
d="M142 217v-121h114v-13h-114v-121h-29v121h-113v13h113v121h29z" />
    <glyph glyph-name="uni2543" unicode="&#x2543;" 
d="M142 217v-121h114v-13h-122v-121h-13v113h-121v29h113v113h29z" />
    <glyph glyph-name="uni2544" unicode="&#x2544;" 
d="M142 217v-113h114v-29h-122v-113h-13v121h-121v13h113v121h29z" />
    <glyph glyph-name="uni2545" unicode="&#x2545;" 
d="M134 217v-121h122v-13h-114v-121h-29v113h-113v29h121v113h13z" />
    <glyph glyph-name="uni2546" unicode="&#x2546;" 
d="M134 217v-113h122v-29h-114v-113h-29v121h-113v13h121v121h13z" />
    <glyph glyph-name="uni2547" unicode="&#x2547;" 
d="M142 217v-113h114v-29h-122v-113h-13v113h-121v29h113v113h29z" />
    <glyph glyph-name="uni2548" unicode="&#x2548;" 
d="M134 217v-113h122v-29h-114v-113h-29v113h-113v29h121v113h13z" />
    <glyph glyph-name="uni2549" unicode="&#x2549;" 
d="M142 217v-121h114v-13h-114v-121h-29v113h-113v29h113v113h29z" />
    <glyph glyph-name="uni254A" unicode="&#x254a;" 
d="M142 217v-113h114v-29h-114v-113h-29v121h-113v13h113v121h29z" />
    <glyph glyph-name="uni254B" unicode="&#x254b;" 
d="M142 217v-113h114v-29h-114v-113h-29v113h-113v29h113v113h29z" />
    <glyph glyph-name="filledbox" unicode="&#x25a0;" 
d="M230 -16h-205v204h205v-204z" />
    <glyph glyph-name="H22073" unicode="&#x25a1;" 
d="M230 -16h-205v204h205v-204zM37 177v-182h182v182h-182z" />
    <glyph glyph-name="triagup" unicode="&#x25b2;" 
d="M221 0h-186l93 188z" />
    <glyph glyph-name="uni25B3" unicode="&#x25b3;" 
d="M128 164l-76 -153h151zM221 0h-186l93 188z" />
    <glyph glyph-name="uni25C6" unicode="&#x25c6;" 
d="M128 -2l-96 96l96 96l96 -96z" />
    <glyph glyph-name="uni25C7" unicode="&#x25c7;" 
d="M128 13l81 81l-81 81l-81 -81zM128 -2l-96 96l96 96l96 -96z" />
    <glyph glyph-name="circle" unicode="&#x25cb;" 
d="M128 9q75 7 82 82q-7 75 -82 82q-75 -6 -82 -82q7 -75 82 -82zM128 184q85 -8 93 -93q-8 -85 -93 -93q-85 8 -93 93q8 85 93 93z" />
    <glyph glyph-name="uni25CE" unicode="&#x25ce;" 
d="M128 184q85 -8 93 -93q-8 -85 -93 -93q-85 8 -93 93q8 85 93 93zM128 177q-80 -7 -87 -86q7 -79 87 -86q79 7 86 86q-7 79 -86 86zM128 155q59 -6 65 -64q-6 -58 -65 -64q-59 6 -65 64q6 58 65 64zM128 148q-54 -4 -58 -57q4 -53 58 -57q53 5 57 57q-4 53 -57 57z" />
    <glyph glyph-name="H18533" unicode="&#x25cf;" 
d="M128 184q85 -8 93 -93q-8 -85 -93 -93q-85 8 -93 93q8 85 93 93z" />
    <glyph glyph-name="uni2605" unicode="&#x2605;" 
d="M128 178l23 -69h72l-58 -44l21 -69l-58 41l-58 -41l20 69l-57 44h71z" />
    <glyph glyph-name="uni2606" unicode="&#x2606;" 
d="M82 12l45 34l46 -33h1l-18 55l46 34h-57l-17 54h-1l-17 -54h-57l46 -34zM127 178l24 -69h72l-58 -44l21 -69l-59 42l-57 -42l20 69l-57 44h71z" />
    <glyph glyph-name="female" unicode="&#x2640;" 
d="M82 129q4 -42 46 -46q41 4 45 46q-4 41 -45 45q-42 -4 -46 -45zM84 19v11h38v43q-47 7 -51 56q5 51 57 56q51 -5 56 -56q-4 -48 -50 -56v-43h37v-11h-37v-30h-12v30h-38z" />
    <glyph glyph-name="male" unicode="&#x2642;" 
d="M82 45q4 -41 46 -45q41 4 45 45q-4 41 -45 45q-43 -4 -46 -45zM84 137l-3 4q34 25 44 44h6q12 -22 44 -42l-3 -6q-21 9 -38 26v-61q46 -8 50 -57q-5 -51 -56 -56q-52 5 -57 56q3 48 51 57v60q-17 -15 -38 -25z" />
    <glyph glyph-name="uni3000" unicode="&#x3000;" 
 />
    <glyph glyph-name="uni3001" unicode="&#x3001;" 
d="M26 43v1q54 -14 71 -54q2 -10 -7 -12q-9 0 -12 10q-16 40 -52 55z" />
    <glyph glyph-name="uni3002" unicode="&#x3002;" 
d="M65 41q-29 -1 -31 -29q2 -29 31 -30q26 1 29 30q-3 28 -29 29zM65 -23q-33 2 -35 35q2 32 35 34q31 -2 34 -34q-3 -33 -34 -35z" />
    <glyph glyph-name="uni3003" unicode="&#x3003;" 
d="M130 132l-46 -87h-3l28 84q3 10 11 12q10 0 10 -9zM175 132l-45 -87h-5l28 84q2 10 11 12q12 0 11 -9z" />
    <glyph glyph-name="uni3005" unicode="&#x3005;" 
d="M109 189l24 -12q1 -2 1 -4q0 -3 -7 -6q-2 0 -3 -1q-6 -15 -16 -28h60q2 0 7 3t8 3q17 -11 21 -22q0 -6 -6 -7h-6q-3 0 -6 -5v-1q-13 -20 -42 -54q-5 -6 -8 -9q37 -30 10 -41q-7 0 -22 26q-4 7 -6 10q-15 20 -27 29v2q21 -8 35 -19q30 32 53 74q-1 1 -2 1h-75
q-25 -29 -47 -38q-4 1 -3 4q63 56 51 89q1 8 6 6z" />
    <glyph glyph-name="uni3008" unicode="&#x3008;" 
d="M197 206l-64 -117l64 -116q2 -6 -6 -7q-1 -1 -3 2l-65 121l65 122q2 2 5 2q5 -3 4 -7z" />
    <glyph glyph-name="uni3009" unicode="&#x3009;" 
d="M68 211l65 -122l-65 -121q-1 -3 -3 -2q-8 1 -6 7l64 116l-64 117q-1 4 4 7q3 0 5 -2z" />
    <glyph glyph-name="uni300A" unicode="&#x300a;" 
d="M179 209l-62 -120l62 -119q2 -4 -4 -5q-3 -1 -4 2l-63 122l63 122q1 3 4 2q5 0 4 -4zM210 205l-62 -116l62 -115q2 -6 -3 -7q-2 0 -4 4l-64 118l64 119q1 3 4 3q5 -1 3 -6z" />
    <glyph glyph-name="uni300B" unicode="&#x300b;" 
d="M85 211l63 -122l-63 -122q-1 -3 -4 -2q-6 1 -4 5l62 119l-62 120q-1 4 4 4q3 1 4 -2zM53 208l64 -119l-64 -118q-2 -4 -4 -4q-5 1 -3 7l62 115l-62 116q-2 5 3 6q3 0 4 -3z" />
    <glyph glyph-name="uni300C" unicode="&#x300c;" 
d="M132 200v-223q0 -3 -4 -4q-4 1 -4 4v230h79q3 0 4 -3q0 -4 -3 -4h-72z" />
    <glyph glyph-name="uni300D" unicode="&#x300d;" 
d="M124 -21v223q0 3 4 4q4 -1 4 -4v-230h-79q-3 0 -4 3q0 4 3 4h72z" />
    <glyph glyph-name="uni300E" unicode="&#x300e;" 
d="M187 205v-27h-46v-204h-26v231h72zM181 184v16h-60v-220h14v204h46z" />
    <glyph glyph-name="uni300F" unicode="&#x300f;" 
d="M69 -26v27h46v204h26v-231h-72zM75 -6v-15h60v220h-14v-205h-46z" />
    <glyph glyph-name="uni3010" unicode="&#x3010;" 
d="M180 -34h-64v248h64q-42 -36 -40 -124q-1 -87 40 -124z" />
    <glyph glyph-name="uni3011" unicode="&#x3011;" 
d="M76 214h64v-248h-64q41 37 40 124q2 88 -40 124z" />
    <glyph glyph-name="uni3013" unicode="&#x3013;" 
d="M54 157h147v-40h-147v40zM54 74h147v-40h-147v40z" />
    <glyph glyph-name="uni3014" unicode="&#x3014;" 
d="M122 182l56 29q10 0 6 -8l-50 -27v-174l50 -26q4 -1 3 -6q-2 -4 -6 -4l-59 29v187z" />
    <glyph glyph-name="uni3015" unicode="&#x3015;" 
d="M134 182v-187l-59 -29q-4 0 -6 4q-1 5 3 6l50 26v174l-50 27q-4 8 6 8z" />
    <glyph glyph-name="uni3016" unicode="&#x3016;" 
d="M116 213h64q-38 -43 -40 -124q1 -80 40 -124h-64v248zM121 208v-237h48q-34 45 -34 118q0 72 34 119h-48z" />
    <glyph glyph-name="uni3017" unicode="&#x3017;" 
d="M140 213v-248h-64q39 44 40 124q-2 81 -40 124h64zM135 208h-48q34 -47 34 -119q0 -73 -34 -118h48v237z" />
    <glyph glyph-name="uni3041" unicode="&#x3041;" 
d="M63 8h3q16 6 37 27q-3 15 -3 31v6q-29 -21 -43 -43q-2 -3 -1 -8q1 -1 1 -5q2 -8 6 -8zM136 -15v1q53 15 59 57q-1 36 -46 41q-11 -26 -37 -53q7 -19 7 -23q-1 -7 -10 0q-3 5 -4 15q-30 -26 -44 -25q-13 5 -10 35q13 28 50 46q2 21 5 41q-11 -2 -20 -2q-17 1 -25 15
q3 -1 7 -2q13 -5 18 -5q8 0 21 3q5 20 5 29q0 8 -8 11v3q21 0 23 -14q0 -4 -4 -9q-4 -9 -7 -18q15 3 31 7q14 7 19 0q1 -4 -13 -8q-12 -5 -39 -9q-1 -4 -2 -13q-3 -18 -4 -26q16 7 32 7q2 6 2 11q0 3 -4 7q-1 2 -2 3q9 0 14 -6q3 -5 1 -14q0 -1 -1 -1q55 -3 56 -47
q-5 -52 -70 -57zM107 75q0 -12 0 -10q0 -11 3 -22q19 21 28 41q-17 -1 -31 -9z" />
    <glyph glyph-name="uni3042" unicode="&#x3042;" 
d="M138 -27v2q65 20 69 69q-3 44 -52 50q-18 -33 -47 -64v-2q1 -4 4 -11q8 -18 1 -23q-9 -3 -15 15q0 2 -1 4q-1 3 -2 4q-34 -31 -52 -32q-7 -1 -9 17q0 2 -1 8q-3 16 -3 24q15 32 63 56q3 30 8 50q-5 0 -13 -1h-11q-27 1 -33 19q16 -6 40 -7h9q7 1 11 1q7 25 7 41q0 5 -9 9
q-1 1 -2 1v2q30 1 29 -22l-3 -3t-5 -8q-3 -7 -6 -19q22 3 43 13q13 3 16 -2q3 -6 -2 -10q-25 -10 -60 -13q-5 -21 -8 -46q18 6 39 8q2 7 2 13q0 5 -7 9l-2 2q15 6 26 -15q0 -1 -1 -3q-2 -3 -2 -6q0 -1 -1 -1q67 -9 68 -59q-6 -61 -88 -70zM103 85v-18q0 -12 2 -22
q24 27 34 49q-19 -1 -36 -9zM91 61q0 9 1 19q-35 -20 -49 -47q-4 -22 5 -31q18 4 45 31q-2 14 -2 28z" />
    <glyph glyph-name="uni3043" unicode="&#x3043;" 
d="M113 80l1 -1q-3 -5 -8 -14q-10 -17 -14 -26q-1 -3 0 -11t-2 -8q-34 5 -37 89q0 12 -5 31q16 -10 19 -28q0 -1 -1 -13q-2 -12 -2 -13q2 -36 18 -42q5 2 31 36zM152 111v1q48 3 56 -53q-1 -14 -6 -15q-2 1 -4 4l-2 2q-5 5 -15 6h-5v1q2 1 5 2q7 2 10 4q4 41 -39 48z" />
    <glyph glyph-name="uni3044" unicode="&#x3044;" 
d="M112 92v-3q-26 -41 -31 -54q-1 -2 0 -10q3 -16 -3 -16q-44 8 -46 117q0 24 -8 41q23 -13 24 -32q0 -2 -2 -20q-1 -10 -1 -11q3 -61 24 -62q3 3 24 28q13 15 19 22zM181 57v1q32 3 30 16q-15 53 -54 52v1q62 6 75 -69q0 -13 -6 -19q-9 0 -11 9q-7 6 -34 9z" />
    <glyph glyph-name="uni3045" unicode="&#x3045;" 
d="M119 188h1q5 -9 26 -15q2 -1 3 -1q29 -7 15 -22q-3 0 -12 6q-1 2 -2 2q-3 2 -9 5q-22 11 -22 25zM81 113q1 -1 3 -2q7 -5 13 -5q3 0 13 5q23 10 38 10q28 1 27 -37q-3 -69 -54 -94q42 40 43 103q0 23 -15 23q-18 0 -38 -17q-5 -5 -7 -5q-19 3 -23 19z" />
    <glyph glyph-name="uni3046" unicode="&#x3046;" 
d="M111 217q7 -15 34 -21q27 -7 27 -22q0 -7 -7 -7q-3 0 -9 5q-7 6 -12 8q-1 1 -4 3q-12 6 -17 10q-13 10 -12 24zM120 -34h-2q58 53 57 121q0 39 -21 39q-15 0 -40 -17q-16 -11 -22 -11q-18 5 -26 21v5q1 0 5 -3q9 -8 16 -7q4 0 17 6q28 13 47 13q39 1 39 -58
q-1 -67 -70 -109z" />
    <glyph glyph-name="uni3047" unicode="&#x3047;" 
d="M109 180l3 -3q10 -9 17 -11q2 -1 7 -3q17 -6 16 -15q-1 -5 -6 -6q-33 16 -37 38zM80 113h2q3 -5 6 -5q13 0 54 16q7 -1 12 -7q3 -7 -11 -16q-2 -1 -3 -2q-5 -5 -19 -23q-18 -22 -27 -32q18 2 31 -17q12 -18 30 -18q10 0 28 5h2q11 2 16 -2q5 -6 -4 -10q-11 -6 -32 -6
q-31 0 -47 29q-9 16 -19 16q-9 0 -20 -18q-12 -18 -22 -18q-10 9 8 26q26 16 74 82q-23 -5 -39 -15q-6 -4 -8 -4q-11 4 -12 19z" />
    <glyph glyph-name="uni3048" unicode="&#x3048;" 
d="M104 206h1q7 -11 34 -21q16 -6 18 -10q8 -16 -6 -17q-43 21 -47 48zM141 116l-2 2q-25 -3 -48 -19q-6 -5 -8 -5q-20 8 -18 30h2q0 -1 1 -2q4 -10 9 -10q10 0 49 15q19 8 22 8q15 -3 17 -17q0 -5 -15 -15q-12 -8 -15 -12q-9 -11 -49 -57q27 -1 45 -29q12 -19 40 -20
q15 0 34 8q16 0 19 -9q1 -12 -38 -11q-46 -1 -55 13q-4 4 -11 16q-18 28 -30 26q-5 0 -10 -2l-15 -20q-2 -3 -3 -4q0 -1 -1 -2q-10 -21 -21 -20q-16 0 3 32q38 21 98 104z" />
    <glyph glyph-name="uni3049" unicode="&#x3049;" 
d="M45 37h1q3 -6 9 -7q3 0 15 11q14 12 22 18v16q1 18 1 29q-5 -1 -10 -1q-24 2 -27 15q9 -5 17 -5q11 0 20 3v36q0 8 -8 11v3q17 2 25 -12q0 -2 -2 -7q-4 -13 -6 -29q4 2 10 4q9 4 10 4q11 -1 9 -8q-2 -6 -16 -10h-1q-7 -3 -13 -3q-1 -12 -1 -34v-7q28 17 54 17
q46 -1 47 -34q-2 -37 -45 -38q-11 0 -27 6v2q2 0 5 -1q7 -2 11 -2q39 2 42 33q-1 30 -37 31q-27 0 -50 -21v-33v-7q1 -5 1 -8q-1 -12 -10 -13q-2 1 -3 4q-1 2 -2 3q-6 11 -16 21q-2 -10 -8 -10q-15 4 -17 23zM164 133v1q37 12 47 -26q0 -4 -10 -1q-4 1 -5 1q-8 -1 -17 -3
l4 4q6 6 6 11q-3 13 -25 13zM88 12h3q0 4 1 39q-15 -14 -20 -25h-1q3 -2 9 -7q5 -4 8 -7z" />
    <glyph glyph-name="uni304A" unicode="&#x304a;" 
d="M23 25h2q7 -9 13 -9h1q20 19 47 40v58h-9q-6 -1 -9 -1q-27 0 -30 20q1 -1 4 -2q12 -8 21 -8q13 0 23 3v48q-1 13 -14 15v2q31 7 34 -17l-1 -1q-8 -13 -10 -43q9 3 22 9q6 3 7 3q9 0 10 -5q-1 -14 -40 -22v-7v-47q39 25 76 25q51 -3 54 -42q-4 -49 -54 -51h-3
q-13 0 -37 11q-1 1 -2 1v2q3 -1 7 -2q12 -3 19 -3h2q47 3 50 44q-2 33 -43 35q-32 0 -69 -32v-15q0 -10 2 -36v-7q0 -16 -12 -16q-2 0 -3 3l-1 1q-5 13 -25 30q-3 -5 -6 -8q-1 -5 -5 -5q-25 11 -21 29zM174 150v1q21 14 43 1q24 -18 14 -36q-1 0 -4 2q-5 3 -9 3q-6 0 -26 -8
v2q2 2 8 7q11 8 11 15q-3 17 -37 13zM83 -6h2q0 4 1 12v9v27q-18 -16 -30 -32q14 -6 27 -16z" />
    <glyph glyph-name="uni304B" unicode="&#x304b;" 
d="M80 186v2q7 5 18 0q14 -8 17 -16q0 -3 -2 -5q-6 -7 -9 -18q0 -1 -1 -3q-4 -9 -8 -16q19 5 34 5q34 0 34 -35q-11 -102 -62 -118q-1 1 -1 5q0 3 -1 5q-3 7 -13 18q-7 6 -9 10h2q1 0 2 -1q20 -10 27 -10q34 17 41 90q0 28 -21 27q-18 0 -36 -7q-21 -50 -40 -96q-1 -1 -2 -4
q-11 -31 -25 -29q-13 5 7 31q5 7 7 10q19 30 39 83q-8 -3 -21 -9q-17 -7 -19 -7q-25 10 -25 26q1 0 5 -3q10 -7 18 -7q5 0 31 8q10 3 15 4q11 33 11 46q0 9 -12 13zM173 142q70 -20 69 -72q-3 -8 -10 -8q-2 1 -3 3q0 2 -1 3q-8 5 -44 10q34 5 37 12q-3 25 -48 52z" />
    <glyph glyph-name="uni304C" unicode="&#x304c;" 
d="M196 162q19 0 30 -10q13 -13 3 -19q-8 0 -17 10q-1 1 -1 2q-6 9 -15 17zM216 180q35 -1 37 -19q0 -8 -6 -8q-4 0 -11 9q-4 6 -6 8q-6 6 -14 10zM163 140q12 0 23 -7q15 -9 26 -19q26 -23 20 -46q-2 -8 -11 -8q-2 1 -3 3q0 2 -1 3t-3 2q-1 1 -2 1h-3q-5 1 -14 4
q-12 2 -21 3q5 1 14 3q10 2 14 3h1q7 2 7 6q0 3 -2 9q-1 3 -1 4q-5 7 -11 13q-15 17 -33 26zM3 122h3q5 -9 15 -10q12 1 22 4q13 4 28 7q11 22 11 46q0 11 -12 16v2q12 4 22 -4q1 0 2 -1q11 -6 11 -12q0 -2 -2 -5q-2 -1 -2 -2q-5 -8 -8 -16q-1 -3 -4 -10q-2 -6 -4 -10
q20 6 32 6h4q17 0 24 -11q7 -8 7 -21v-6q0 -26 -11 -57q-10 -25 -24 -42q-12 -16 -27 -16q-1 1 -1 5q0 3 -1 5q-3 8 -13 18q-6 7 -8 10h2l6 -3q10 -5 16 -6q3 -1 7 -1q6 0 10 3q7 7 15 25q16 27 16 57v7q0 8 -3 15q-5 9 -17 9h-5q-8 0 -27 -6q-1 -1 -2 -1q-2 0 -5 -2v-1
q-1 -2 -1 -3l-9 -21q-11 -25 -16 -38q-6 -15 -12 -31l-3 -6q-5 -12 -10 -18q-7 -9 -14 -9q-5 1 -6 8q1 10 7 16l6 9q4 5 6 8q9 13 15 26q4 9 10 25q7 17 10 25q1 1 2 3q1 1 1 2q-8 -2 -16 -5h-2q-4 -1 -11 -4q-1 -1 -3 -2q-3 -3 -5 -4q-3 -1 -8 -1q-3 0 -9 9q-12 11 -9 19z
" />
    <glyph glyph-name="uni304D" unicode="&#x304d;" 
d="M52 148v2q15 -4 44 2q3 1 5 1q6 1 12 4q-3 5 -8 14q-3 5 -4 7q-1 1 -2 3q-5 10 -9 12t-12 -2q-3 -2 -4 -2l-1 1q0 1 1 2q3 7 6 9q8 7 25 0q7 -3 7 -10v-7q0 -4 5 -13q2 -2 2 -3q2 -2 3 -5l1 -2q7 2 18 7q2 2 3 2t2 1q9 6 15 6q11 0 12 -6q0 -6 -6 -7q-7 -3 -15 -6
q-11 -5 -23 -8q1 0 1 -1q1 -1 1 -2q3 -5 9 -14q6 -10 8 -15q1 0 3 1q10 3 22 10q1 0 2 1q5 3 10 3q12 -1 12 -6t-8 -8q-2 -1 -8 -3q-5 -2 -8 -3t-9 -2l-9 -3q11 -15 21 -29q8 -9 18 -17q1 -1 5 -3q2 -1 3 -2q3 -2 3 -8q0 -5 -2 -9q-3 -8 -7 -10q-3 0 -5 3q-2 1 -3 2
q-11 7 -32 11q-20 6 -44 6h-4q-28 0 -40 -11q-8 -6 -8 -16t9 -18q6 -8 22 -13l1 -1q1 0 3 -1q13 -3 28 -3h4h6q4 1 6 1h5q11 0 17 -5q6 -6 3 -11q-5 -4 -11 -4h-5q-14 0 -29 3q-12 1 -25 4q-28 8 -38 27q-7 14 -1 31q8 15 37 20h3q11 2 21 2h13q11 0 34 -2q11 -1 17 -1
q0 3 -2 4q-6 10 -14 19q-11 13 -20 28q-31 -12 -50 -15q-13 -2 -19 0q-7 3 -21 13q-1 1 -2 1v1q14 -3 28 -4q20 0 49 9q2 1 5 2q4 2 5 2q-9 13 -20 33h-1q0 -1 -1 -1t-3 -1q-26 -8 -39 -8q-3 0 -6 2q-2 1 -3 1q-1 1 -4 2q-3 3 -10 6z" />
    <glyph glyph-name="uni304E" unicode="&#x304e;" 
d="M160 180v2q22 -3 32 -14q11 -15 -2 -20q-5 0 -12 13q-9 16 -18 19zM187 195v2q49 -8 36 -30q-7 0 -18 13q-10 12 -18 15zM29 101v2q14 -5 27 -5q24 0 59 13q-5 8 -15 25q-4 6 -5 8q-28 -9 -44 -9q-5 0 -18 8q-3 1 -4 2v2q30 -4 61 7q-20 35 -23 35q-5 5 -17 -3l-1 1
q5 14 18 14q17 -1 22 -13v-7q0 -6 11 -24q5 2 14 7q19 11 23 10q11 0 12 -5q0 -7 -6 -8q-2 -3 -37 -14q7 -15 19 -32q8 3 21 9q14 6 16 6q11 -1 11 -6t-7 -8q-9 -4 -34 -11q23 -33 38 -46q1 -1 3 -2q4 -2 5 -3q8 -12 -6 -27q-3 0 -8 4q0 1 -1 2q-29 15 -77 16q-48 0 -49 -27
q4 -35 65 -36h8q6 1 7 1q18 0 23 -10q3 -10 -13 -11q-93 3 -98 50q-2 39 70 38q15 0 43 -2q10 -1 15 -1q0 1 -1 2q0 1 -1 2q-17 20 -34 47q-48 -16 -60 -16q-15 0 -32 15z" />
    <glyph glyph-name="uni304F" unicode="&#x304f;" 
d="M177 -23v-4q-1 -12 -10 -8q-7 6 -10 13q-7 15 -16 30q-13 19 -28 36q-1 1 -3 4q-9 12 -15 19l-4 4q-9 7 -11 13q-5 12 9 25q3 4 9 10q6 7 8 10q22 22 40 46q0 1 2 2q5 8 7 11q1 3 1 8q0 3 -7 8q-3 2 -4 3v2q27 -2 30 -25q0 -8 -14 -17q-12 -10 -22 -21q-18 -15 -34 -31
q-2 -2 -6 -5q-9 -7 -11 -11q-5 -11 8 -21q18 -14 35 -32q13 -13 33 -39q13 -19 13 -30z" />
    <glyph glyph-name="uni3050" unicode="&#x3050;" 
d="M146 139v1q18 -1 27 -11q11 -17 0 -21q-3 0 -10 12q-10 16 -17 19zM174 152v1q19 -2 28 -11q11 -14 3 -21q-5 0 -11 10q-9 14 -20 21zM114 207v2q27 -1 30 -25q0 -6 -21 -24q-30 -25 -54 -49q-12 -10 -13 -19q1 -10 14 -20q72 -61 76 -95q-1 -12 -5 -13q-9 0 -18 19
q-1 2 -1 3q-14 30 -51 72q-7 8 -9 11t-6 8q-8 9 -8 15q0 9 18 25q5 6 15 17q49 53 44 62q0 6 -11 11z" />
    <glyph glyph-name="uni3051" unicode="&#x3051;" 
d="M32 78v-5q0 -21 7 -36q3 0 3 2q6 9 16 32q4 9 6 13v-2q-6 -18 -10 -37q-6 -22 -6 -35v-6q0 -7 -4 -8q-17 0 -19 33q-3 18 -3 36v16q0 25 10 66q6 20 6 31q0 9 -11 18q-1 2 2 3q4 0 13 -6q14 -11 14 -20q0 -3 -2 -6q-22 -55 -22 -89zM121 116h-4q-10 0 -26 8v2q16 -4 45 1
l18 3q11 2 17 3v21v3q1 26 -10 31q-5 3 -17 3v3q14 9 30 1q13 -8 13 -23q0 -3 -2 -9q-1 -5 -1 -7v-20q2 0 6 1h6q3 0 7 1q7 2 12 2q8 0 14 -4q8 -5 5 -12q-5 -1 -18 0h-8h-7q-8 0 -17 -1v-35q0 -37 -10 -68q-12 -32 -31 -45q-10 -8 -17 -9q22 20 35 65q10 31 10 77v14h-3
q-30 -6 -47 -6z" />
    <glyph glyph-name="uni3052" unicode="&#x3052;" 
d="M51 78v-2q-18 -45 -15 -68q1 -6 0 -10q-1 -5 -7 -5q-20 14 -21 72q0 31 14 85q5 21 5 25q0 6 -7 15q-4 5 -4 7q23 -3 29 -25q0 -1 -4 -10q-22 -46 -22 -90q1 -35 10 -35q13 20 22 41zM189 188q16 -1 26 -14q10 -18 -2 -21q-3 0 -9 12q-8 16 -15 23zM213 201q18 -1 28 -11
q12 -13 3 -18q-6 -1 -16 13q-9 12 -15 16zM77 124v2q3 0 12 -1h8q21 0 63 8q2 63 -29 56v2q33 16 45 -20q0 -1 -1 -3q-3 -11 -4 -34q7 1 19 4q13 2 14 2q17 -4 20 -13q0 -3 -3 -4q-5 0 -19 1h-5q-12 0 -26 -1v-4q3 -121 -54 -153h-2v3q46 41 45 151v1l-21 -3q-23 -3 -32 -3
q-17 0 -30 9z" />
    <glyph glyph-name="uni3053" unicode="&#x3053;" 
d="M122 169h9h18q2 0 6 -1q13 -1 18 -3q14 -7 9 -16q-3 -4 -8 -4h-5q-23 1 -64 -19h-2l1 1q18 12 33 26v1q-4 1 -10 1h-5q-24 1 -43 16q-7 7 -8 11q17 -13 51 -13zM111 9h10q28 0 67 9q10 4 19 1q8 -2 8 -10q0 -5 -8 -11q-6 -2 -19 -3q-5 -1 -7 -1h-12q-8 -1 -13 -1h-27
q-49 0 -75 21q-12 12 -13 29q0 16 11 33q0 -1 -1 -4q-2 -7 -3 -11q-4 -25 13 -39q9 -7 25 -10q3 0 8 -1q11 -2 17 -2z" />
    <glyph glyph-name="uni3054" unicode="&#x3054;" 
d="M55 180q15 -12 66 -14q46 -2 46 -15q1 -9 -15 -9q-25 -1 -62 -16q4 4 13 10q17 13 16 17q-51 0 -64 27zM194 188v2q46 -7 33 -32q-6 0 -16 13q-10 14 -17 17zM172 174q22 -3 32 -13q12 -14 1 -21q-5 -2 -14 14q-8 12 -12 15q-5 1 -7 5zM36 73q-5 -17 -5 -26q1 -39 69 -40
q31 0 71 8q10 2 12 2q12 0 15 -8q2 -8 -7 -14q-16 -4 -68 -5q-97 0 -98 51q0 14 11 32z" />
    <glyph glyph-name="uni3055" unicode="&#x3055;" 
d="M126 62h-9q-22 0 -35 -6q-21 -9 -22 -26q0 -11 8 -20t26 -15q16 -4 34 -7q3 0 9 -1q12 -2 19 -2h4q15 0 15 -8q-1 -9 -15 -11h-4q-23 0 -57 12q-44 18 -44 45v5q0 19 17 29q9 7 29 11q3 0 10 1q13 2 20 2h11q26 0 45 -8v3q-15 21 -31 42q-3 4 -9 11q-6 8 -9 11
q-39 -13 -62 -13h-5q-11 1 -19 7q-9 10 -8 18h1q8 -11 25 -11h5q15 1 30 4q10 1 22 5q-8 8 -17 14q-9 8 -20 15q-6 4 0 19v1q2 8 9 8q2 0 4 -2q3 -1 4 -2q3 -2 10 -3q4 -1 6 -2q19 -4 38 -12q3 -1 7 -3q5 -2 7 -3h7q4 0 6 -1q5 -1 7 -4q3 -6 -2 -11q-2 -1 -7 -4q-4 -3 -7 -5
q-8 -4 -27 -10q-2 -1 -3 -1q14 -15 38 -46q4 -5 6 -7t5 -6q7 -7 10 -12q4 -4 4 -10q0 -3 -3 -9q-1 -2 -2 -3q-5 -5 -13 0q-6 7 -12 11q-8 5 -16 6q-12 3 -24 3q-7 1 -16 1zM171 158q1 4 -4 9l-1 1q-19 16 -47 16q-13 0 -14 -5q0 -2 3 -5q1 -2 2 -3q13 -11 25 -23q1 0 3 -2
l2 -2q18 6 31 14z" />
    <glyph glyph-name="uni3056" unicode="&#x3056;" 
d="M175 180q19 -2 29 -14q11 -14 2 -21q-6 0 -14 13q-7 10 -12 14q-1 1 -2 3q-4 3 -3 5zM197 191v3q35 -4 40 -26q0 -6 -6 -6q-5 0 -13 10q-10 14 -21 19zM20 142h1q7 -11 28 -11q18 0 54 9q-10 9 -31 26q-3 2 -5 3q-9 19 9 28q2 0 4 -2q2 -1 3 -2q41 -9 68 -23h7t7 -1
q12 -6 5 -15q-18 -11 -43 -21q23 -25 43 -52q2 -3 8 -9q11 -12 10 -19q-3 -12 -11 -14q-4 0 -11 7q-5 5 -8 6q-12 9 -60 10q-59 -1 -61 -32q4 -41 98 -45q16 0 17 -9q-2 -9 -17 -10q-99 8 -104 60q0 45 82 45q37 -3 51 -8v3q-29 43 -50 63q-36 -12 -64 -12q-28 2 -30 25z
M147 158q-2 14 -30 23q-29 9 -36 -2q0 -2 3 -5q1 -2 2 -3q17 -13 29 -27q24 7 32 14z" />
    <glyph glyph-name="uni3057" unicode="&#x3057;" 
d="M55 145v27q0 8 -3 14q-2 3 -9 7l-1 1q0 5 3 5q10 0 19 -6q12 -10 12 -22q0 -3 -2 -6q-4 -16 -7 -48q-1 -8 -1 -12q0 -6 -1 -17q-2 -22 -2 -35v-15q0 -25 10 -36q9 -12 28 -12h10q50 0 104 47q-1 -10 -13 -22q-39 -39 -88 -40h-5q-31 0 -46 18q-11 16 -11 44v16q0 13 1 25
q2 34 2 67z" />
    <glyph glyph-name="uni3058" unicode="&#x3058;" 
d="M41 194v3q39 -5 33 -36q-11 -51 -14 -119q0 -55 45 -54q55 0 109 52h1q-36 -64 -99 -67q-66 -5 -64 68q0 27 2 107q1 19 1 27q0 11 -14 19zM113 148q40 -14 28 -35q-8 -1 -18 19q-6 12 -10 16zM135 159v3q19 -1 31 -13q12 -15 0 -19q-6 0 -14 11q-9 13 -17 18z" />
    <glyph glyph-name="uni3059" unicode="&#x3059;" 
d="M161 158h11q23 0 44 3h5q8 2 11 0q1 0 2 -1q8 -6 8 -11q0 -2 -1 -4q-3 -3 -8 -3q-4 0 -12 2q-5 2 -7 2q-21 4 -50 4h-11h-13q0 -20 2 -40q0 -1 1 -2q1 -3 2 -4q6 -12 6 -31v-8q0 -36 -16 -62q-13 -21 -40 -39h-2v1q41 42 41 74h-8q-16 0 -27 11q-14 14 -14 29v5
q4 33 34 37q6 0 12 -3v31q-16 -2 -31 -5q-30 -3 -48 -12q-8 -6 -13 -6q-8 0 -14 5l-1 1q-13 9 -9 16q2 0 5 -3l3 -3q5 -3 17 -1q1 0 4 1q6 2 16 4q35 9 71 11v41q-2 12 -21 13v3l5 3h1h4q11 0 23 -12q6 -8 1 -24q-4 -7 -4 -16v-7h21zM134 59v26q0 9 -3 17q-7 11 -17 11
q-7 0 -15 -8q-9 -5 -9 -19q0 -11 9 -20q10 -14 25 -14q10 0 10 7z" />
    <glyph glyph-name="uni305A" unicode="&#x305a;" 
d="M171 202v2q19 -2 28 -14q9 -14 -3 -18q-3 0 -11 12q-8 15 -14 18zM197 212v2q42 -2 32 -25q-6 -4 -15 8q-9 13 -17 15zM109 208v3q5 3 11 3q29 -3 26 -25q-6 -6 -6 -31v-1q12 1 26 1q15 0 49 3q10 1 11 1q13 -2 17 -11q0 -9 -11 -9q-38 7 -70 7q-7 0 -21 -1q0 -5 1 -19
v-19q10 -12 10 -41q-1 -70 -59 -105h-2q33 30 42 72q-44 4 -48 48q3 33 31 37q8 0 15 -3v29q-66 -5 -85 -17q-19 -11 -33 18q1 0 6 -2q8 -5 12 -5q3 0 17 3q45 10 83 13v24q1 26 -22 27zM133 60v27q-1 24 -19 26q-22 -5 -23 -27q3 -29 34 -34q7 1 8 8z" />
    <glyph glyph-name="uni305B" unicode="&#x305b;" 
d="M94 99v-28q-6 -66 61 -62q21 0 37 4q4 1 5 1q20 -1 23 -8q3 -13 -45 -13q-99 -8 -94 93v10q-30 -7 -49 -15q-18 4 -28 27q1 0 8 -4q10 -6 14 -6q2 0 15 3q23 5 40 8v38q0 12 -19 12q14 23 35 -6q0 -2 -2 -5q-1 -2 -1 -3v-33q43 8 76 9q2 32 2 45q0 19 -19 20q4 11 19 5
q18 -9 19 -21q0 -1 -2 -3t-2 -3q-1 -21 -4 -43h12q18 0 28 4q3 1 5 1q18 -4 24 -17q-2 -3 -6 -4q-1 0 -5 1q-22 4 -51 4h-9q-9 -67 -27 -69q-3 1 -4 5l-1 2q-4 8 -19 17q-3 1 -4 2v2l22 -7q13 -4 21 47q-37 -1 -75 -10z" />
    <glyph glyph-name="uni305C" unicode="&#x305c;" 
d="M195 168v1q20 -1 30 -12q10 -16 -3 -20q-4 0 -10 10q-8 15 -17 21zM219 180v2q27 -4 33 -16q3 -10 -3 -13q-4 -1 -9 7q-9 15 -21 20zM91 92v-46q0 -25 14 -35q9 -7 34 -6h15q11 0 22 2q6 2 13 2h12q13 -3 9 -13q-3 -4 -17 -7h-2q-3 0 -9 -1h-8h-11q-16 0 -31 3
q-23 4 -35 16q-17 15 -19 62v4q0 -3 0 16q-6 0 -10 -2q-13 -2 -32 -11l-1 -1q-4 -2 -7 -2t-9 3q-7 6 -13 13q-3 4 -3 9q3 0 5 -3l3 -3q7 -5 24 -2q7 1 19 4q4 1 6 1q5 2 14 4h3v7v14q0 9 -1 17q0 8 -5 11q-5 4 -12 3q0 7 12 7q5 0 9 -2q13 -4 13 -13q0 -3 -1 -8
q-1 -6 -1 -10v-23q6 2 14 3q4 0 13 2q28 3 42 3h3q2 20 2 38v8q0 10 -3 13q-6 8 -15 7v2q8 7 19 2q17 -8 18 -18q0 -1 -1 -3v-2q0 -2 -3 -4q-2 -1 -2 -2q-2 -11 -2 -22q0 -4 -1 -10v-9h6q19 0 36 6q10 0 15 -4q14 -6 10 -13q-3 -1 -7 -1h-4q-22 5 -46 5h-11q-2 -13 -5 -27
q-4 -24 -14 -35q-4 -4 -9 -4q-4 0 -8 6q-4 8 -19 18q-1 1 -2 1h3q13 -4 23 -8q5 -2 10 12q1 1 1 2q1 4 3 13l3 12q0 2 1 5q0 3 1 5q-36 -2 -71 -11z" />
    <glyph glyph-name="uni305D" unicode="&#x305d;" 
d="M200 99h-5q-22 0 -48 -14q-31 -17 -36 -41q-4 -16 6 -33q11 -17 39 -22q25 -2 25 -14q0 -5 -4 -8q-4 -2 -15 0q-9 3 -18 7q-41 20 -42 52v5q0 29 34 55l6 6q4 3 6 5l-1 1q-67 -14 -94 -38q-1 -1 -4 -3q-7 -8 -13 -8q-12 2 -9 14q4 8 12 10q2 2 8 3q3 1 5 2q12 9 24 19
q26 22 41 38q10 9 28 28q10 11 16 17q1 4 -4 5q-3 0 -8 -1q-3 -1 -10 -4q-3 -1 -5 -2q-17 -6 -29 -16l-2 -2l-2 -2q-6 0 -14 9l-2 2q-6 6 -7 17v4h2q5 -11 15 -12q12 1 21 4q22 6 41 15h1q6 0 16 -13q1 -2 2 -3q2 -3 2 -7q0 -5 -6 -5q-7 -2 -19 -13l-6 -6q-36 -35 -76 -65
v-1q34 13 86 24q14 3 24 6q1 0 2 1q7 3 13 3q5 0 10 -1q8 -1 16 -6q8 -2 8 -6q0 -7 -11 -7h-4q-2 0 -7 1h-8z" />
    <glyph glyph-name="uni305E" unicode="&#x305e;" 
d="M182 169q19 -4 28 -15q9 -16 -2 -19q-5 0 -11 11q-5 10 -10 16l-1 1q-5 4 -4 6zM209 180v2q29 -3 35 -25q-1 -8 -7 -9q-6 1 -10 9q-4 14 -18 23zM130 95v3q-65 -15 -98 -43q-7 -6 -11 -6q-9 1 -9 11q2 10 12 13q49 26 122 107q1 4 -3 5q-19 -1 -46 -21q-8 -6 -10 -6
q-21 8 -24 32h2l3 -3q7 -9 12 -9q17 0 57 16l7 3q11 -4 20 -23q0 -5 -7 -5q-3 -1 -29 -24q-47 -42 -73 -61q26 9 80 21q28 7 33 9q1 0 2 1q4 3 11 3q29 -2 34 -13q0 -7 -18 -7h-10q-12 1 -14 1q-67 -10 -78 -62q0 -40 48 -48q21 -1 24 -12q0 -13 -20 -10q-57 19 -60 62
q0 34 43 66z" />
    <glyph glyph-name="uni305F" unicode="&#x305f;" 
d="M203 110q-1 6 -8 9q-7 4 -15 5q-7 1 -21 2q-8 1 -11 1q29 12 58 -1q1 0 3 -1q14 -5 18 -12q4 -6 4 -12q0 -9 -7 -9q-2 0 -5 1q1 0 -1 1q-1 0 -2 1q-2 3 -6 3t-9 -3q-3 -1 -8 -3q-10 -5 -16 -6q2 2 7 5q13 9 17 14q3 3 2 5zM190 -5h9q4 0 11 1q7 2 10 2q10 0 16 -5
q1 -3 -3 -7q-7 -6 -22 -6h-24q-7 0 -21 2q-7 1 -11 1q-27 4 -35 21q-7 10 -3 26q1 3 2 9q2 5 2 7v-12q0 -10 4 -18q3 -7 11 -11q10 -7 34 -9h5q3 0 8 -1h7zM76 196v2q15 4 31 -11q3 -1 3 -6q0 -2 -2 -5q-2 -2 -3 -4q-3 -4 -6 -17q-1 -2 -1 -3q0 -3 -2 -6q2 1 6 2q10 4 14 7
q1 1 3 2q5 5 10 5q9 -1 11 -7q0 -6 -13 -11q-3 -1 -4 -2q-10 -4 -21 -7q-6 -3 -12 -4q-18 -52 -40 -103q-1 -2 -3 -8q-3 -7 -4 -11q-1 -6 -5 -12q-7 -6 -12 -3q-3 3 -3 9v6q0 5 6 11q13 15 27 52q1 1 2 4q13 33 19 51q-10 -3 -20 -5q-20 -3 -28 5q-9 9 -9 13q2 0 5 -2t5 -2
q13 -6 42 2q3 1 5 1q3 1 5 1l6 18q0 2 1 6q6 18 0 25q-2 3 -9 6q-3 0 -4 1z" />
    <glyph glyph-name="uni3060" unicode="&#x3060;" 
d="M107 44h1q-9 -51 53 -51q9 0 37 4q6 1 7 1q24 -1 17 -12q-9 -9 -38 -9q-81 0 -83 41q0 12 6 26zM133 127q75 17 82 -32q-4 -5 -12 0q-4 3 -6 3q-5 0 -10 -3q-3 -1 -8 -2q-10 -3 -16 -4q5 3 14 10q4 3 6 4q16 21 -50 24zM187 168v1q24 0 35 -11q12 -17 -3 -21q-3 0 -11 10
q-12 17 -21 21zM208 188v2q40 -1 43 -21q0 -6 -8 -7q-4 0 -12 9q-12 13 -23 17zM61 195v2q24 5 32 -18q0 -4 -5 -12l-1 -1l-4 -12l-3 -9q20 10 31 17q14 0 14 -8q0 -4 -6 -7l-1 -1q-12 -6 -44 -18q-46 -122 -48 -125q-3 -10 -9 -12h-1q-6 -2 -8 0q-4 13 0 24q6 5 12 17
q17 25 41 92q-12 -3 -22 -3q-25 -1 -34 19q14 -7 25 -7q18 1 36 7q3 8 8 25q1 4 2 6q2 23 -15 24z" />
    <glyph glyph-name="uni3061" unicode="&#x3061;" 
d="M78 194v2q5 4 11 3q2 -1 5 -2q12 -2 15 -10q1 -3 1 -6q0 -2 -2 -7q-2 -3 -2 -5q-6 -12 -9 -25h4q7 2 22 8l9 3q23 13 37 1q1 -6 -5 -9q-3 -1 -10 -2t-10 -2q-12 -3 -26 -6q-2 -1 -7 -2q-3 -1 -17 -5q-3 -14 -6 -26l-3 -18q-5 -23 -6 -36h1q45 31 88 31q60 0 59 -40v-2
q-1 -30 -32 -51q-27 -15 -69 -15h-9v2q30 3 60 21q33 20 33 48v2q-1 29 -38 30q-49 -3 -88 -37q-3 -6 -4 -12q0 -1 -1 -2q0 -3 -3 -8q-2 -3 -8 -3q-7 1 -7 14v5v1q3 9 7 28q5 18 7 27q5 19 6 37q-12 -2 -25 -2h-4q-20 3 -23 24q4 0 8 -5q3 -3 5 -4q5 -2 10 -2h4q15 0 28 3
q3 13 5 28q2 11 0 16q-3 9 -11 10z" />
    <glyph glyph-name="uni3062" unicode="&#x3062;" 
d="M177 156v2q46 -13 29 -37q-7 0 -13 13q-7 15 -16 22zM204 168v1q19 -1 32 -13q7 -7 5 -15q-3 -7 -11 -3q-2 1 -6 7q-9 15 -20 23zM60 190v3q19 11 32 -13q0 -4 -4 -9q-1 -1 -1 -2q-4 -11 -7 -27q10 3 29 11q21 9 26 9q10 -1 15 -8q2 -6 -6 -10q-12 -1 -51 -12
q-11 -3 -17 -5q-4 -20 -10 -60q-2 -13 -3 -16q46 30 93 30q53 -2 56 -42q-6 -61 -109 -66v2q89 17 93 71q-1 29 -39 30q-55 -3 -89 -41q-4 -15 -10 -20q-3 -1 -7 -1q-6 5 -7 17q0 4 7 29q11 39 16 65q-14 -3 -26 -4q-22 2 -26 24q11 -10 25 -10q13 0 28 4q1 4 2 11
q3 20 3 30q-1 9 -13 10z" />
    <glyph glyph-name="uni3063" unicode="&#x3063;" 
d="M155 130h9q19 0 36 -9q18 -11 19 -32v-5q-2 -33 -31 -55q-24 -14 -57 -15h-5l1 1q26 6 44 18q23 15 29 29q6 13 6 25v4q0 14 -10 23q-11 10 -29 10h-7q-20 0 -54 -12q-26 -9 -39 -22q-3 -3 -7 -4q-3 0 -9 4q-1 2 -2 2l-3 3q-9 7 -8 13q2 1 5 -2q2 -2 3 -2q9 -4 29 5l6 3
q21 9 36 12q24 6 38 6z" />
    <glyph glyph-name="uni3064" unicode="&#x3064;" 
d="M117 2v1q104 20 110 92q-2 48 -54 53q-53 -2 -104 -40q-2 -1 -5 -5q-9 -9 -14 -9q-29 12 -36 32q1 0 3 -2q13 -8 18 -8q11 0 38 14q52 26 91 26q75 -2 78 -62q-7 -86 -125 -92z" />
    <glyph glyph-name="uni3065" unicode="&#x3065;" 
d="M197 159v3q16 0 27 -9q10 -12 1 -18q-6 0 -15 10q-7 10 -13 14zM219 179v1q28 -2 34 -17q0 -6 -6 -7q-5 -1 -9 5l-2 2q-7 13 -17 16zM93 5v2q101 16 104 88v3q-1 22 -14 35q-14 9 -32 9h-3q-56 0 -103 -40q-12 -10 -16 -10q-17 2 -26 24q2 0 6 -2q7 -3 11 -3q6 0 24 10
q49 27 93 27q74 0 74 -60q-2 -82 -118 -83z" />
    <glyph glyph-name="uni3066" unicode="&#x3066;" 
d="M169 4h4q4 0 12 -6q3 -1 4 -2q10 -4 10 -10q0 -12 -23 -8q-76 13 -78 80q2 64 69 104v2q-13 -1 -39 -7q-7 -2 -11 -3q-27 -7 -55 -20q-4 -3 -11 -4q-4 0 -10 6q-4 2 -10 9l-3 3q0 1 -1 2q-2 3 -2 4v4h2q6 -9 17 -10q6 0 17 3q7 2 11 3q34 11 70 17q7 2 21 4q14 3 20 4
q2 0 5 1q7 2 11 2t12 -2q-5 2 2 0q1 0 3 -1q8 -1 11 -3q6 -4 3 -11q-2 -3 -9 -3q-2 0 -8 1q-5 1 -8 1q-86 -20 -99 -101q6 -54 63 -59z" />
    <glyph glyph-name="uni3067" unicode="&#x3067;" 
d="M184 137h2q19 -6 27 -19q8 -17 -4 -20q-6 1 -12 16t-13 23zM213 145q44 -15 32 -36q-6 -5 -17 14q-9 15 -15 22zM149 163v2q-39 0 -93 -28q-15 -7 -18 -7q-25 8 -29 28h2q5 -9 16 -10q9 0 44 10q50 15 73 17q2 0 11 2q23 5 26 5q18 0 27 -5q6 -4 5 -10q-3 -6 -16 -4
q-14 1 -26 -2q-67 -26 -78 -90q1 -66 71 -69q1 0 3 -1q3 0 6 -2q1 0 3 -2q8 -4 8 -7q-17 -22 -69 6q-33 22 -33 62q3 63 67 105z" />
    <glyph glyph-name="uni3068" unicode="&#x3068;" 
d="M107 -4h26q22 0 43 7q3 2 6 2q20 -1 21 -11q-1 -5 -10 -9q-18 -5 -44 -5h-17q-81 -1 -79 49q-1 31 48 64q-4 11 -7 21q-4 22 -6 43q0 7 -2 19q0 -1 0 2q0 5 -3 6q-4 4 -13 6v4q8 6 23 -1q14 -7 14 -19v-4q0 -3 -1 -11q-2 -9 -2 -13v-10q0 -10 4 -27q1 -6 1 -8
q40 30 67 32q13 0 13 -8q0 -6 -12 -11q-3 -1 -4 -2q-112 -36 -115 -86q3 -29 49 -30z" />
    <glyph glyph-name="uni3069" unicode="&#x3069;" 
d="M159 178v2q20 -1 33 -12q13 -14 2 -20q-4 0 -12 10q-13 15 -23 20zM175 197v2q23 0 34 -8q14 -12 4 -19q-4 0 -12 9q-15 14 -26 16zM57 190v4q31 7 38 -17q0 -1 -1 -7q-6 -37 3 -69h1q5 3 14 8q42 27 52 24q11 -1 14 -9q0 -8 -11 -12q-122 -37 -123 -87q-1 -29 56 -29
q40 0 65 8q4 1 6 1q15 0 17 -11q-1 -10 -15 -11q-16 -3 -35 -3q-101 -1 -99 46q3 41 50 68q-8 22 -13 68q-2 20 -4 21q-6 6 -15 7z" />
    <glyph glyph-name="uni306A" unicode="&#x306a;" 
d="M20 154v2q2 -1 6 -2q17 -6 22 -6q19 0 39 4q2 3 5 10q7 13 10 20q5 19 -13 20v2q10 6 21 -2q12 -10 8 -20q-1 -2 -3 -4l-3 -3q-1 -4 -9 -18q7 12 -1 -2q10 3 24 8q6 2 7 2q13 0 15 -10q3 -5 -54 -15q-38 -76 -54 -96q-7 -7 -14 0q-3 9 9 26q3 0 9 5l1 2q14 20 36 61
q-20 -3 -33 -3q-15 1 -28 19zM118 14q-36 -1 -38 -19q3 -17 37 -18q25 0 34 31q-15 6 -33 6zM183 132v1q31 -1 45 -14q18 -27 -8 -19q-12 3 -28 3q-34 0 -33 -31q0 -9 3 -37q2 -13 2 -18q16 -3 29 -11q18 -14 8 -26q-5 0 -10 5q-3 3 -5 4q-7 7 -22 14q-3 -34 -42 -33
q-46 1 -49 25q4 26 53 27q13 1 25 -2q-3 30 -3 34q0 28 12 40q6 6 26 11q22 6 22 12q-5 12 -25 15z" />
    <glyph glyph-name="uni306B" unicode="&#x306b;" 
d="M32 188q23 -8 27 -27q0 -5 -6 -18q-18 -38 -18 -78q0 -22 7 -42q2 -1 3 -1q4 11 12 34l12 33q-1 -16 -8 -47q-7 -32 -8 -48q-1 -12 -9 -12q-17 8 -20 79q0 25 10 69q6 25 6 33q0 9 -6 20q-2 3 -2 5zM160 126h-3l16 14q6 4 6 8q-4 2 -15 2q-26 0 -63 -8v1q35 22 78 22
q31 -1 34 -17q0 -6 -18 -10q-22 -5 -35 -12zM100 69h1q-4 -49 63 -47q15 0 34 5q5 1 6 1q18 -1 28 -10q4 -12 -42 -11q-92 -1 -91 47q0 3 1 8v7z" />
    <glyph glyph-name="uni306C" unicode="&#x306c;" 
d="M39 153h1q0 -24 12 -53q31 27 64 37q3 13 3 28q0 16 -19 20v1q28 5 32 -18q0 -15 -2 -28q11 3 22 2q82 -2 84 -76q0 -30 -15 -51q11 -6 19 -14q8 -12 0 -21q-6 -1 -12 7l-3 3q-8 11 -14 14q-19 -19 -48 -19q-27 1 -28 22q1 23 37 23q18 0 36 -7q12 21 12 45q-2 68 -68 69
q-12 0 -24 -3q-14 -56 -43 -97q3 -3 6 -8q9 -11 9 -16q-2 -12 -14 -2q-7 7 -10 12q-30 -33 -47 -33q-9 1 -12 14q0 2 -2 5q-3 9 -3 19q2 30 31 61q-7 22 -7 40q0 6 2 18q1 4 1 6zM114 130q-33 -15 -57 -43q10 -21 22 -39q27 41 35 82zM47 76q-26 -35 -27 -57q1 -16 10 -17
q14 1 39 31q-14 19 -22 43zM172 25q-29 0 -32 -17q1 -16 23 -18q21 0 39 23q-15 12 -30 12z" />
    <glyph glyph-name="uni306D" unicode="&#x306d;" 
d="M161 22q-22 0 -23 -14q1 -17 24 -18q21 1 35 21q-17 11 -36 11zM68 108v2v11q-11 -3 -20 -14q-4 -6 -6 -6q-21 5 -25 20q2 -1 5 -2q8 -3 12 -3q13 1 37 21q1 11 2 25q1 7 1 9v2q0 7 -4 13q-5 6 -13 9v2q10 5 22 -3q12 -11 9 -20q-5 -18 -8 -38q10 -7 11 -14t-6 -10
q-6 -8 -10 -15v-9q-1 -7 -1 -10q55 54 99 55q53 -4 55 -63q0 -30 -11 -52q14 -7 23 -20q3 -6 3 -13q0 -4 -5 -5q-4 0 -11 7l-1 1q-3 2 -9 8t-9 8q-16 -22 -46 -22q-31 1 -32 26q2 22 36 22q20 0 38 -6q7 22 7 47q0 54 -42 53q-44 0 -95 -51v-22q0 -7 1 -23q1 -15 1 -23
q0 -30 -8 -32q-3 0 -6 1t-3 7v3q-4 16 -19 37q-2 -6 -6 -16q-2 -5 -3 -8q-3 -11 -14 -9q-7 10 -1 20q29 38 52 100zM66 5v60l-7 -7q-3 -4 -5 -6h-1q-7 -15 -12 -30l6 -6q6 -6 10 -8q4 -3 9 -3zM66 70v9q-6 -10 -12 -23q2 2 5 6q4 5 7 8z" />
    <glyph glyph-name="uni306E" unicode="&#x306e;" 
d="M129 156l-5 13q-87 -31 -99 -98q10 -39 27 -43q63 66 77 128zM153 -7h-2l1 2q69 37 71 94q-7 75 -85 80h-9q17 -13 13 -29q-3 -3 -7 -11q-1 -3 -2 -5q-60 -107 -83 -112q-27 11 -33 59q16 93 122 106q96 -6 100 -90q0 -70 -86 -94z" />
    <glyph glyph-name="uni306F" unicode="&#x306f;" 
d="M31 60v-11q0 -9 4 -27q1 -6 5 -5q4 8 7 26q1 1 1 2q1 4 3 11q4 15 6 22q0 -10 -4 -33q-1 -5 -1 -8t-1 -10q-2 -10 -2 -15v-4q0 -7 2 -15q3 -15 -3 -16q-5 -1 -10 2q-3 3 -5 7q-5 9 -7 23q-3 19 -3 40v21q0 22 10 64q6 22 8 33q3 14 -2 19l-1 1q-5 4 -4 7q11 0 19 -12
q7 -8 1 -25q-1 -2 -2 -6q-10 -26 -14 -42q-6 -24 -7 -49zM190 16v-1q-1 -17 -15 -29q-10 -6 -29 -6h-6q-32 0 -41 17q-3 8 0 14q10 24 45 26h4q14 0 28 -3v1q0 3 -2 80h-3q-9 -2 -19 -2h-4q-23 0 -47 20v2q20 -9 36 -9h7q6 0 19 2q7 1 10 1v12v27q0 9 -3 13q-2 4 -11 7
q-2 1 -3 1v2q2 3 5 3q9 1 16 -5q14 -7 14 -17q0 -1 -1 -4q1 2 -1 -1q-6 -15 -6 -30v-4v-1q19 4 34 10h1q10 -1 11 -6q0 -7 -13 -12q-6 -2 -16 -4q-5 -1 -7 -2q-2 0 -5 -1h-4q0 -14 1 -29q1 -8 2 -26q2 -17 2 -26q0 -1 1 -2v-3q17 -4 31 -13q16 -7 12 -17q-4 -8 -13 -3
q-9 8 -19 13l-6 3q-3 1 -5 2zM143 28h-4q-14 0 -22 -4q-10 -6 -11 -15q0 -18 31 -19h5q16 0 26 7q8 7 8 24q-18 7 -33 7z" />
    <glyph glyph-name="uni3070" unicode="&#x3070;" 
d="M19 191l1 3q17 1 26 -20q2 -6 -7 -29q-20 -49 -20 -91q1 -38 8 -37q3 9 8 27q8 25 12 37v-4q-15 -68 -10 -79q7 -20 -7 -21q-20 1 -20 78q0 38 12 87q12 41 -3 49zM194 186v2q42 -8 31 -29q-6 -4 -19 13q-8 10 -12 14zM214 201q19 -2 28 -11q10 -14 0 -21q-4 -1 -13 13
t-15 19zM143 190v4q33 -3 33 -23q-6 -15 -6 -38v-1q8 2 21 6q14 4 16 4q9 -1 10 -6q0 -7 -11 -12q-20 -6 -36 -8q1 -19 4 -55q3 -22 3 -31q31 -8 41 -21q3 -9 -5 -13q-2 -1 -14 6q-13 7 -21 11q-3 -32 -42 -33q-49 1 -53 27q7 28 49 30q15 0 31 -3q-3 40 -4 80q-5 0 -13 -1
h-12q-25 0 -45 22q21 -9 40 -9q16 0 29 4v22q2 35 -15 38zM126 28q-32 -1 -35 -20q1 -18 35 -18q35 -2 37 30q-16 8 -37 8z" />
    <glyph glyph-name="uni3071" unicode="&#x3071;" 
d="M244 183q-1 20 -19 21q-19 -1 -20 -20q1 -17 20 -19q18 1 19 18zM199 184q2 24 25 26q24 -2 26 -27q-2 -23 -25 -25q-24 2 -26 26zM6 41v25q0 21 10 62q5 24 7 36q3 18 -7 24l1 2q8 1 14 -4q7 -6 11 -15q3 -8 -5 -25q-2 -5 -3 -7q-18 -43 -18 -85v-7q0 -15 3 -28
q1 -6 5 -5q9 33 19 64v-4q-3 -21 -8 -44q0 -1 -1 -4q-4 -20 -1 -31q0 -1 1 -2q1 -4 1 -9q1 -10 -8 -9q-8 0 -12 9q-4 10 -6 22q-3 17 -3 35zM158 139v27q0 10 -4 15t-12 9v3q11 4 25 -8q10 -7 10 -14q0 -1 -1 -4q1 2 -1 -1q-6 -15 -6 -30v-7q1 0 4 1q7 2 18 6q2 0 6 2
q5 2 8 2t6 -2q6 -2 6 -5q0 -6 -12 -12q-3 -1 -11 -3q-7 -2 -11 -3h-2q-5 -2 -12 -2q6 -75 5 -60q2 -12 3 -25q1 0 2 -1q15 -3 22 -7q1 0 2 -1q16 -6 16 -14q-1 -8 -7 -9q-3 0 -5 2q-15 9 -30 15v-1q-2 -18 -9 -25q-10 -10 -28 -10h-4q-5 0 -17 2q-5 1 -8 1q-11 3 -20 9
q-8 6 -8 18t15 20q13 7 30 7h7q13 0 28 -3q0 4 -1 8v2q0 10 -1 30q-1 19 -2 29q0 6 -1 11h-10q-7 -1 -11 -1h-7q-23 1 -41 23q16 -9 34 -10h10q12 0 25 3v13zM129 25h-4q-11 0 -20 -3q-13 -5 -14 -13q1 -19 30 -21h4q14 0 26 6q11 8 12 24v1q-16 6 -34 6z" />
    <glyph glyph-name="uni3072" unicode="&#x3072;" 
d="M80 180q8 0 14 -4q9 -4 6 -13q-1 -3 -6 -7q-4 -2 -5 -4q-3 -4 -9 -13q-3 -5 -4 -7q-2 -4 -6 -11q-8 -15 -12 -22q-12 -27 -13 -56v-3q0 -30 20 -43q6 -4 15 -4q26 0 56 30q15 20 26 44q14 33 14 66v4q0 5 -3 16q-3 12 -3 18v5q0 9 8 9q9 0 10 -12v-4q0 -21 12 -43
q9 -20 27 -37l2 -2q8 -7 10 -12q1 -3 1 -6q-2 -13 -18 -6q-6 7 -11 13q-13 21 -23 44q-3 10 -7 19v-20q0 -44 -20 -83q-30 -55 -71 -56h-4q-24 1 -38 17q-14 20 -14 44v4q0 48 35 107q0 1 1 3q4 6 4 10q-9 -8 -19 -14q-1 -1 -3 -2q-10 -7 -16 -7q-5 0 -14 9l-1 1q-4 6 -4 10
q26 -16 63 18z" />
    <glyph glyph-name="uni3073" unicode="&#x3073;" 
d="M6 162q20 -15 50 11q6 7 14 7t14 -10q4 -5 -3 -12l-3 -3q-4 -2 -6 -6q-39 -57 -39 -108q1 -44 34 -45q79 7 94 137q0 10 -5 31q-2 7 -2 8q0 14 11 13q10 -3 11 -18q0 -40 41 -79q9 -9 9 -11q3 -14 -9 -15q-11 1 -21 17q-19 25 -29 65q-3 -157 -92 -164q-52 2 -54 62
q1 50 38 122q-22 -22 -36 -22q-14 4 -17 20zM188 180q24 -4 32 -25q4 -10 -2 -14q-7 -3 -12 7q-9 22 -18 32zM213 188v2q33 -6 37 -27q0 -7 -6 -10q-6 -1 -10 5q-8 23 -21 30z" />
    <glyph glyph-name="uni3074" unicode="&#x3074;" 
d="M64 -9h4q30 1 57 36q17 23 26 63q6 32 6 49v5v1q0 2 -1 6q-4 12 -4 18v4q0 7 8 7q9 -1 11 -11v-5q0 -12 6 -30q8 -19 21 -34q3 -5 11 -14q1 -2 2 -3q9 -9 12 -14q4 -10 -3 -14q-12 -7 -25 16q-15 20 -25 51q-3 11 -7 20v-10q0 -25 -5 -49t-12 -42q-25 -63 -68 -64h-4
q-52 3 -55 63q0 43 30 102q8 15 9 19q-9 -7 -18 -13q-1 0 -2 -1q-11 -7 -17 -7q-3 0 -8 4q-1 1 -2 1l-3 3q-5 6 -5 10q1 -1 4 -2q6 -3 10 -3q7 1 13 4l6 3q8 4 18 11l3 3q6 6 11 6q3 0 6 -3q6 -4 10 -8q3 -5 -1 -12q-4 -3 -8 -7q-2 -2 -6 -8q-5 -6 -7 -9q-33 -53 -33 -93
q2 -45 35 -49zM248 164q-1 20 -21 21q-20 -1 -22 -21q2 -20 22 -22q20 1 21 22zM227 190q25 -1 26 -26q-1 -26 -26 -27q-25 2 -27 27q1 25 27 26z" />
    <glyph glyph-name="uni3075" unicode="&#x3075;" 
d="M156 12v-3q0 -14 -10 -23q-9 -7 -26 -1q-23 9 -41 24q5 -1 15 -5q16 -6 24 -6q9 0 15 8q10 13 -4 39q0 1 -1 2q-2 3 -3 5q-62 -25 -70 -56q-1 -12 -9 -11q-3 0 -8 4q-1 1 -2 1q-7 4 -13 9q-8 8 -8 18v2q0 10 4 18q2 3 4 1q-4 -22 11 -24q12 0 31 11q26 16 45 24q2 1 7 3
l6 3q-11 20 -15 31q0 1 -1 4q-2 5 -2 9q0 7 12 17q2 3 6 7q8 9 10 14q5 11 -1 15q-9 6 -16 14q-8 10 -8 24h2q6 -16 30 -26q16 -7 16 -17q0 -7 -11 -13q-10 -6 -19 -14q-15 -10 -15 -20q0 -7 6 -15q6 -9 14 -17q4 -4 7 -9h2q5 2 10 2q34 5 66 -13q23 -14 25 -40
q1 -10 -8 -10q-3 0 -9 5l-1 2q-2 1 -4 1q-2 1 -3 1q-5 0 -15 1t-16 1l1 1l24 6q5 1 7 5q-4 36 -58 38q-9 0 -20 -3q17 -24 17 -44z" />
    <glyph glyph-name="uni3076" unicode="&#x3076;" 
d="M185 130q37 -1 34 -28q-8 -6 -22 14q-8 11 -12 14zM209 140v2q40 -1 43 -25q-7 -8 -17 4q-14 14 -26 19zM97 190h1q2 -13 25 -23q22 -9 22 -20q0 -8 -17 -18q-27 -15 -29 -34q0 -6 16 -25q7 -8 10 -13q17 3 30 3q66 -3 73 -54q0 -14 -17 -3q-5 3 -7 3q-7 1 -30 1
q16 5 31 11q-1 36 -50 39q-15 0 -28 -3q18 -23 18 -42q-3 -27 -23 -30q-14 0 -51 25q-2 1 -3 2q61 -24 58 8q0 17 -12 34q-55 -18 -69 -53q-3 -15 -9 -16q-2 0 -5 2q-1 1 -2 1q-1 1 -4 3q-21 11 -21 30q0 5 4 15q1 3 1 4q4 4 4 1q-3 -17 4 -23q8 -6 21 1q39 27 75 38
q-3 6 -10 17q-8 12 -8 15q-5 12 15 35q14 15 14 22q0 5 -9 13q-18 13 -18 34z" />
    <glyph glyph-name="uni3077" unicode="&#x3077;" 
d="M219 145q-19 -1 -20 -20q2 -18 21 -20q17 1 19 20q-1 19 -20 20zM194 125q2 23 25 25q24 -1 25 -25q-2 -23 -24 -24q-24 2 -26 24zM12 23v4v1l2 9q1 1 4 1q-1 -16 11 -23q8 -3 22 6q3 1 4 2q23 16 42 24q12 6 23 10l-6 12q-5 8 -7 12q-8 18 0 28l2 2q4 5 9 11q6 8 11 15
q6 9 0 14l-1 1q-10 8 -15 14q-7 8 -7 18v4h1q3 -7 11 -13q5 -4 18 -10q2 -1 3 -1q6 -2 11 -8q6 -9 3 -16q-2 -2 -5 -3l-2 -1q-1 0 -3 -1q-15 -6 -22 -14q-13 -11 -13 -19q0 -12 15 -26l3 -3q8 -7 11 -12q8 1 15 1h4q22 0 43 -8q20 -8 30 -18q10 -13 10 -27q0 -11 -6 -11
q-3 0 -7 4q-1 1 -3 2q-2 3 -8 5h-15h-20q3 1 10 3t10 3q1 0 3 1q11 4 12 8q0 11 -17 23q-10 8 -32 12q-12 3 -27 -1q5 -4 6 -10q6 -12 6 -28v-5q0 -17 -9 -26q-4 -4 -12 -4h-4q-3 1 -5 1q-13 3 -34 18q-7 6 -11 8q4 -1 13 -4q4 -1 7 -2q10 -3 19 -4q10 0 16 7q12 14 -9 44
q-6 -2 -17 -8l-6 -3q-17 -8 -32 -22q-10 -8 -13 -16q0 -2 -1 -6q0 -4 -1 -6q-2 -7 -6 -7q-1 0 -4 1q2 -1 -1 1q-4 4 -10 7q-19 13 -19 29z" />
    <glyph glyph-name="uni3078" unicode="&#x3078;" 
d="M6 89q1 0 4 -2q4 -3 6 -3q12 0 29 18l3 3q10 9 22 18q13 15 27 14q15 0 40 -25l3 -3l10 -10l5 -5q2 -1 5 -3q5 -4 14 -11q23 -17 48 -31q11 -4 19 -9q7 -5 8 -9q3 -8 -2 -13q-5 -2 -13 2q-12 6 -23 14q-43 26 -75 64q-3 3 -8 9q-9 10 -14 14q-13 13 -25 6q-7 -3 -20 -16
q-5 -6 -8 -8l-1 -1q-11 -13 -13 -21q0 -1 -1 -2q-1 -6 -4 -7t-6 -1q-11 0 -21 6l-1 1q-9 6 -8 11z" />
    <glyph glyph-name="uni3079" unicode="&#x3079;" 
d="M174 150q22 1 33 -6q13 -13 2 -20q-3 0 -12 9q-14 14 -23 17zM201 169q47 -1 36 -24q-6 0 -17 10q-11 11 -19 14zM4 86q1 0 4 -2q11 -8 22 1q8 7 23 20q29 29 45 28q11 0 47 -33q27 -25 42 -35q8 -6 38 -22q14 -7 15 -8l3 -3q9 -7 9 -12q1 -17 -26 -3q-48 26 -103 91
q-16 19 -25 18q-7 0 -18 -11q-26 -25 -31 -38q-4 -11 -13 -11q-29 3 -32 20z" />
    <glyph glyph-name="uni307A" unicode="&#x307a;" 
d="M204 173q25 -2 26 -27q-2 -23 -25 -25q-26 1 -28 25q0 27 27 27zM225 146q-2 21 -21 23q-21 -1 -22 -23q2 -19 23 -20q19 2 20 20zM4 89q1 0 2 -1q11 -6 17 -3q4 2 12 8l2 2q5 4 13 12q9 9 14 13q3 3 9 8q5 5 8 7q1 1 3 2q5 3 9 3q7 0 9 -1q9 -3 24 -18q8 -6 22 -19
q15 -13 22 -20q23 -19 57 -36q8 -3 14 -7q11 -9 11 -16q0 -8 -4 -9q-10 0 -26 12q-3 1 -4 2q-10 9 -21 16q-53 42 -76 68l-6 6q-5 7 -8 9q-4 6 -11 6t-12 -6q-12 -8 -28 -29q-7 -10 -11 -20v-1q-1 -5 -6 -7q-3 -2 -9 0h-1q-9 3 -17 8l-2 2q-6 5 -6 9z" />
    <glyph glyph-name="uni307B" unicode="&#x307b;" 
d="M18 47v19q0 25 9 63q1 3 3 10q3 11 4 16q3 18 -3 25q-2 5 -5 8q8 1 17 -10q7 -7 7 -19v-4q0 -1 -1 -4q-1 -2 -1 -4q-9 -15 -12 -33q-7 -26 -7 -48v-20q0 -20 6 -32h3q9 19 22 59q5 14 7 21q-2 -21 -12 -56q-1 -2 -2 -7q-5 -22 -5 -33q0 -3 1 -9t1 -9q-1 -6 -8 -7
q-8 0 -14 14q-4 14 -7 27q0 4 -1 11q-2 15 -2 22zM215 135l6 -2q1 -6 -5 -10q-7 -4 -15 -7l-18 -6v-23q0 -12 2 -37q1 -13 1 -19q34 -7 48 -17q4 -4 4 -9q-1 -6 -5 -7q-3 0 -8 3q-3 1 -5 2q-15 8 -34 13v-2q0 -18 -10 -27q-12 -10 -27 -10h-4q-12 0 -26 7q-12 7 -12 21v2
q3 26 51 27q9 0 18 -1q0 10 -1 32t-1 34v8q-18 -3 -37 -4h-5q-18 0 -25 10q15 -6 44 1q12 3 23 6v28q0 2 -1 5v3q-1 3 -3 6q-3 3 -3 5h-3q-15 -2 -31 -2h-9q-12 1 -22 7v2q21 -5 63 6q2 0 5 1q13 4 21 4q12 0 20 -6q2 -1 2 -3v-2q0 -5 -9 -5h-5q-15 0 -28 -2q6 -3 10 -9
q6 -5 5 -14q0 -3 -1 -10q-1 -6 -1 -10q3 1 9 4l9 3q1 0 3 1q7 4 10 3zM148 22h-2q-30 -1 -32 -16q2 -19 30 -21q22 1 29 14q3 9 3 18v2q-14 3 -28 3z" />
    <glyph glyph-name="uni307C" unicode="&#x307c;" 
d="M52 98v-4q-7 -36 -15 -66q-6 -16 -2 -34q1 -5 1 -6q0 -8 -8 -8q-22 6 -24 78q0 32 10 76q6 24 6 34q0 6 -5 17q-1 2 -1 3q21 -10 24 -27q0 -3 -5 -16q-19 -47 -19 -80q1 -43 11 -43q7 16 18 49zM220 172q29 -5 32 -25q0 -5 -4 -7q-4 -1 -7 4q-1 2 -3 5q-10 18 -18 23z
M198 158q23 -3 27 -22q0 -6 -5 -7q-5 1 -7 7q-4 13 -15 22zM132 28q-32 0 -32 -19q1 -17 26 -19q31 -1 32 35q-11 3 -26 3zM89 173v1q13 -4 60 6q23 5 28 5h3q15 -3 16 -9q1 -7 -19 -7q-10 0 -22 -1q14 -6 14 -21q0 -3 -1 -8q-1 -8 -1 -14q14 5 18 8q14 8 18 1q2 -7 -13 -14
q-1 -1 -11 -5q-8 -3 -13 -5v-3q0 -29 5 -68q1 -4 1 -5q20 -5 37 -14l2 -1q9 -6 9 -10q-1 -7 -14 -3q-15 8 -33 14q1 -39 -47 -38q-32 1 -34 22q0 32 52 33q6 0 14 -1q-2 32 -2 71q-49 -13 -67 9q19 -8 67 5v5q1 31 -9 42q-15 -3 -26 -3q-14 0 -32 8z" />
    <glyph glyph-name="uni307D" unicode="&#x307d;" 
d="M4 51v34q0 26 9 60q4 10 4 22q0 7 -4 14q0 2 -2 5q-1 3 -2 4q6 -1 14 -9q10 -10 10 -19q0 -3 -2 -7q-1 -3 -1 -4q-7 -13 -12 -28q-6 -20 -6 -41v-15q0 -3 1 -9v-8q1 -12 7 -25q2 0 4 2q11 32 20 62v-3l-6 -36q-1 -4 -2 -7q-1 -4 -2 -13q-4 -18 -4 -26v-6q-1 -12 -7 -13
q-4 0 -9 9l-1 1q-5 15 -6 23q0 4 -1 11q-2 15 -2 22zM251 168q-1 -24 -24 -25q-25 1 -26 26q2 24 26 25q22 -2 24 -26zM227 148q18 1 19 20q-2 19 -19 20q-20 -1 -21 -19q2 -19 21 -21zM119 165h-6q-13 0 -27 7v2q10 -2 17 -2q12 0 34 6q2 1 6 2q16 5 25 5h4h1h1
q13 -3 14 -8q0 -1 -1 -4q-1 0 -3 -1h-2h-5q-6 0 -18 -2q-7 -2 -10 -2q-1 0 -1 -1q23 -12 13 -30v-8q3 1 8 4q3 2 5 3q1 0 3 1q6 3 9 3q9 -1 10 -6q0 -2 -5 -6q-2 -1 -3 -2q-4 -2 -13 -6q-8 -4 -13 -6h-1v-25q0 -15 4 -44q-3 21 0 -3q22 -3 35 -12q12 -6 12 -15q0 -4 -4 -6
q-2 0 -6 1q-2 2 -4 2q-7 5 -15 8l-4 2q-4 3 -13 6v-9v-4q1 -9 -8 -17q-10 -9 -23 -8h-4q-26 0 -38 14q-13 19 14 35q13 5 29 5h4h12q-2 16 -2 31v35q-15 -7 -36 -7q-13 0 -28 11v2q2 0 5 -1q7 -2 11 -2q21 0 48 11v16q0 15 -9 26q-11 -1 -22 -1zM126 34h-4q-24 -1 -25 -18
q0 -12 21 -17q14 -2 22 0q12 5 13 19v5v8q-13 3 -27 3z" />
    <glyph glyph-name="uni307E" unicode="&#x307e;" 
d="M120 200v1q26 1 32 -17q0 -1 -2 -6q-6 -17 -6 -30v-6q17 3 36 9q5 2 6 2q10 0 15 -6q4 -7 -5 -9q-13 -3 -52 -8v-37h3q2 0 7 1q23 1 23 14q4 -3 13 -5q8 -2 8 -5q4 -13 -54 -20q2 -30 5 -54q52 -11 60 -29q3 -12 -3 -13q-5 0 -9 3q-19 16 -48 24q-2 -39 -49 -39
q-49 1 -52 32q3 25 59 26q15 1 30 -2q-3 43 -3 48v3q-5 0 -15 -1h-13q-42 0 -50 22q26 -13 78 -7v38q-19 -3 -35 -3q-40 1 -53 22q19 -11 46 -11q23 0 42 3v37q1 20 -14 23zM87 20q-26 -2 -31 -18q4 -21 41 -22q36 0 39 33q-24 7 -49 7z" />
    <glyph glyph-name="uni307F" unicode="&#x307f;" 
d="M135 168v1q-18 -5 -34 -18q-8 -6 -12 -6q-12 0 -24 22l1 2q2 0 5 -3q5 -4 8 -4q16 0 60 20q17 -6 19 -21q0 -6 -10 -14l-4 -4q-8 -9 -37 -56q-3 -6 -5 -9h2q50 0 83 -13q10 37 -7 51q34 -7 21 -57q37 -17 38 -34l-1 -2q-1 -3 -3 -3q-3 0 -6 1q-2 1 -6 4q-15 11 -27 18
q-27 -54 -61 -66q31 32 47 73q-42 21 -84 21q-33 -55 -50 -72q-11 -12 -20 -7t-11 24q5 52 73 62q39 65 45 90zM28 22q2 -15 8 -17q8 0 18 16q2 3 3 4q2 2 5 7q9 14 23 38q-54 -8 -57 -48z" />
    <glyph glyph-name="uni3080" unicode="&#x3080;" 
d="M14 148h1q12 -7 21 -7q18 0 35 5l2 20q-1 20 -20 23v2q23 7 37 -15q0 -1 -2 -7q-2 -11 -4 -20q11 3 26 9q9 4 11 4q11 0 15 -5q3 -4 -5 -8q-29 -8 -49 -13q-1 -6 -2 -21q-1 -6 -1 -10q9 -6 9 -19q0 -10 -12 -41q-9 -24 -9 -30q-10 -25 54 -22q78 -2 64 42q0 2 -1 6
q-8 65 -8 78q-1 19 19 18q45 -3 47 -49q0 -10 -6 -10q-3 0 -7 3q-7 5 -17 5h-11q1 1 4 2q13 6 15 14q0 27 -29 33q-12 -1 -13 -16q10 -64 29 -109q1 -1 1 -2q0 -32 -85 -31q-71 -2 -65 34q0 1 1 6q1 9 1 12q-35 17 -33 44q6 29 42 32l2 29q-19 -4 -31 -4q-18 2 -26 18z
M62 47l7 45q-25 7 -34 -19q-2 -21 27 -26z" />
    <glyph glyph-name="uni3081" unicode="&#x3081;" 
d="M121 188v2q32 -2 29 -33v-3q-1 -6 -4 -17h5q90 0 90 -79q-6 -74 -93 -83v2l6 3q72 30 71 82q-2 62 -76 64h-5q-12 -37 -45 -83q2 -2 5 -6q4 -4 5 -6q8 -14 0 -17q-10 -1 -23 12q-1 1 -1 2q-33 -35 -52 -38q-13 0 -18 41q0 38 38 71q-1 3 -2 10q-10 44 -15 53
q12 -3 21 -32q1 -1 1 -2q1 -4 2 -13q2 -7 2 -10q34 23 70 28q2 5 4 17v2q4 26 -15 33zM67 96q9 -24 23 -43q25 32 38 71q-33 -8 -61 -28zM57 88q-38 -31 -33 -63v-2q2 -14 10 -14q18 1 44 29q-12 20 -21 50z" />
    <glyph glyph-name="uni3082" unicode="&#x3082;" 
d="M157 103l1 1q42 -40 42 -82q-3 -54 -66 -58q-51 0 -51 71q0 12 1 16q-27 14 -28 32q0 7 27 26q10 7 14 10v2q-37 13 -36 37h1q6 -12 37 -22q3 -1 5 -2q3 12 6 21q14 40 -17 47v2q32 6 40 -25q0 -8 -5 -13q-7 -14 -15 -37q7 -4 7 -10t-13 -10q-6 -20 -12 -49q5 -1 14 -1
q25 -3 29 -5q5 -6 3 -9q-3 -4 -11 -4q-15 0 -37 6q-2 -10 -2 -19q0 -52 41 -51q52 3 54 50q1 39 -29 76zM95 106q-32 -6 -36 -23q-1 -15 26 -21q6 24 10 44z" />
    <glyph glyph-name="uni3083" unicode="&#x3083;" 
d="M34 87v2q1 0 2 -1q18 -8 36 4q7 6 14 10q-4 6 -7 10q-13 13 -9 25q5 13 23 13q1 0 19 -1t19 -1q5 0 7 2q0 6 -7 17q-1 1 -1 2q16 -7 21 -19q5 -15 -6 -17q-1 1 -5 2q-33 14 -47 14q-29 -2 0 -39q2 -1 3 -3q50 26 85 26q40 -1 41 -29q0 -33 -36 -33q-15 0 -41 12v1
q3 -1 10 -2q15 -4 21 -4q34 0 35 28q-1 20 -29 20q-39 -1 -80 -26q60 -78 62 -93q2 -12 -2 -16q-10 -5 -16 7q-6 36 -54 96q-2 -1 -5 -3l-3 -3q-21 -28 -50 -1z" />
    <glyph glyph-name="uni3084" unicode="&#x3084;" 
d="M148 90v2q24 -11 38 -11q44 3 48 37q-2 26 -43 27q-44 0 -97 -34q47 -60 79 -121q5 -20 -7 -21q-12 2 -17 22q-26 64 -66 114q-19 -13 -28 -23q-20 -23 -48 19q1 0 2 -1q10 -8 21 -7q6 1 33 14q8 5 13 7l-6 6q-2 3 -7 7q-12 11 -11 24q0 23 30 23q8 0 26 -2q17 -3 25 -3
q15 7 -4 30q21 -7 30 -25q7 -19 -9 -21q-4 0 -21 7q-32 13 -47 13q-16 -1 -17 -17q0 -9 13 -25q5 -5 7 -8q2 -1 3 -3q66 33 106 33q53 0 55 -41q-3 -39 -48 -41q-25 0 -53 19z" />
    <glyph glyph-name="uni3085" unicode="&#x3085;" 
d="M67 30v-3q0 -5 -4 -7q-14 2 -15 44q0 11 3 31q6 34 -6 45q17 -2 19 -20q0 -3 -2 -12q-6 -21 -6 -38q1 -17 4 -24q8 30 31 56q4 51 32 56q20 1 26 -26q3 1 7 1q52 -3 55 -56q-2 -55 -60 -57q-4 0 -8 1q-10 -19 -31 -33h-3q15 15 25 35q-41 12 -43 71q-24 -27 -24 -64z
M140 131q-6 22 -19 22q-23 -6 -28 -49q22 21 47 27zM137 30q7 20 7 45q0 32 -3 50q-25 -4 -48 -27q4 -56 44 -68zM148 28q51 1 52 51q-3 44 -47 47h-2q4 -16 4 -47q0 -32 -9 -51h2z" />
    <glyph glyph-name="uni3086" unicode="&#x3086;" 
d="M39 42h2q11 46 39 74q5 70 39 72q25 1 37 -32h8q68 -3 72 -64q-5 -78 -77 -83q-8 0 -12 1q-15 -29 -42 -40h-2q17 13 31 43q-54 17 -55 87q0 -1 0 6q-28 -40 -29 -87q0 -8 -4 -10q-22 4 -23 55q0 18 5 47q9 40 -8 56q22 -3 24 -25q0 -7 -4 -25q-6 -28 -6 -44t5 -31z
M143 154q-7 29 -26 29q-27 -2 -32 -61q25 24 58 32zM148 92q0 27 -4 57q-33 -6 -60 -37v-11q1 -65 54 -78q10 27 10 69zM155 20q61 5 63 73q-2 55 -59 57h-1q6 -21 6 -56q0 -44 -13 -74h4z" />
    <glyph glyph-name="uni3087" unicode="&#x3087;" 
d="M104 33q-30 0 -31 -15q2 -15 33 -16q22 1 23 22q0 2 -1 6q-12 3 -24 3zM189 121v-3q-36 -14 -58 -3v-14q0 -20 7 -60q46 -8 51 -30q0 -6 -4 -6q-6 1 -11 4q-18 11 -34 17v-3q0 -30 -33 -30q-38 2 -40 24q3 23 53 24h7q-5 52 -5 65v43q-1 14 -12 20q12 10 29 -11
q0 -3 -3 -13q-5 -19 -5 -29h2q15 0 37 11q5 3 6 3q3 0 8 -5q3 -3 5 -4z" />
    <glyph glyph-name="uni3088" unicode="&#x3088;" 
d="M122 100v77q0 11 -18 17v2q26 7 37 -19q0 -1 -2 -6q-6 -19 -6 -31v-14h1q10 0 34 10q14 6 18 6q5 1 13 -4l6 -3q-2 -14 -51 -17q-12 0 -21 5v-31q0 -7 3 -36q2 -19 3 -28q60 -10 68 -30q2 -8 0 -12q-4 -7 -17 -1q-21 18 -49 28v-11q-1 -33 -39 -36q-48 1 -54 28
q3 35 60 36q9 0 18 -1q0 10 -2 33q-2 29 -2 38zM102 20q-45 0 -46 -21q3 -21 37 -22q34 1 35 32l-1 8q-12 3 -25 3z" />
    <glyph glyph-name="uni3089" unicode="&#x3089;" 
d="M70 119v-37q0 -9 -2 -27q-1 -9 -1 -14q3 0 13 7q39 28 77 28q51 -2 53 -41q0 -62 -91 -62h-7l1 1q81 17 82 61q-2 34 -37 36q-56 -2 -81 -47q-1 -1 -2 -4q-3 -13 -12 -13q-13 3 -17 18v3q8 17 12 54q3 27 7 40q2 14 28 28q17 9 17 15q0 2 -7 9q-16 18 -15 27h2
q3 -7 20 -17q24 -15 24 -29q-2 -12 -15 -9q-42 6 -49 -27z" />
    <glyph glyph-name="uni308A" unicode="&#x308a;" 
d="M111 -34h-2q57 53 61 147q-4 72 -31 75q-23 0 -38 -56q-12 -36 -9 -59v-4q0 -16 -6 -17q-15 -3 -15 47q0 21 4 55q2 16 2 20q0 9 -5 23q0 -1 -1 2q17 -9 18 -25q0 -3 -2 -16q-7 -44 -1 -45q25 81 58 81q40 -3 41 -88q-2 -104 -74 -140z" />
    <glyph glyph-name="uni308B" unicode="&#x308b;" 
d="M111 22q-20 -2 -22 -17q3 -21 37 -23q12 0 21 3q-7 35 -36 37zM147 175v2q-22 0 -45 -15q-6 -4 -8 -4q-24 10 -20 28h2q5 -17 51 1q17 6 21 6q9 0 14 -11q3 -7 6 -9q3 -3 3 -4q0 -7 -11 -12q-2 -1 -3 -1q-9 -3 -60 -69q-10 -12 -12 -15l2 -1q1 1 3 2q33 22 59 21
q63 -2 65 -50q-3 -68 -83 -71q-45 1 -48 31q3 22 31 24q35 0 48 -38q35 18 36 51q-1 47 -47 48q-41 -1 -86 -56q-6 -9 -17 -7q-8 2 -5 12q2 6 12 14q9 7 15 14q46 57 77 109z" />
    <glyph glyph-name="uni308C" unicode="&#x308c;" 
d="M57 117v2q-6 -2 -18 -11q-10 -7 -12 -7q-16 9 -19 20l2 1q17 -17 48 18h1q1 8 0 5q2 23 2 28q0 14 -13 22v2q20 5 32 -21q0 -4 -3 -7q-6 -12 -10 -33q10 -8 10 -13q0 -2 -2 -5q-12 -14 -16 -34h1q58 73 96 72q23 -1 23 -27q0 -9 -6 -45q-8 -50 -8 -67q-3 -23 22 -21
q38 1 66 21q-19 -33 -65 -35q-38 -2 -36 51q0 24 8 70q5 25 5 32q0 15 -15 15q-39 -2 -90 -81v-19q0 -13 4 -54q1 -8 1 -9q-1 -14 -9 -21h-1q-1 1 -2 1q-3 14 -17 39q-2 3 -3 5v2q9 -8 18 -17h1q0 1 1 3v3v55v1q-15 -25 -25 -48q-4 -13 -13 -16q-11 -2 -12 9q0 3 5 10l1 2
q41 70 48 102z" />
    <glyph glyph-name="uni308D" unicode="&#x308d;" 
d="M84 79l1 -1q1 0 2 1q50 22 75 22q60 -1 62 -51q-3 -75 -123 -77v2q106 19 107 79q0 39 -45 40q-56 -1 -102 -46q-1 -1 -3 -4q-11 -16 -22 -9q-10 8 5 20q16 11 28 23q76 82 75 98q-11 3 -36 -12q-9 -6 -11 -6q-5 0 -12 7q-4 5 -8 8q-2 2 -2 8q-1 3 -1 4h2q11 -23 64 5
q1 1 3 2q1 2 2 2q14 -7 20 -24q0 -4 -6 -6q1 0 -1 -1q-7 -4 -35 -37q-23 -29 -39 -47z" />
    <glyph glyph-name="uni308E" unicode="&#x308e;" 
d="M95 77v-4q39 35 70 35q44 -3 47 -42q-5 -58 -80 -61q62 18 67 62q-2 33 -38 34q-30 -1 -66 -35v-3v-34q0 -4 1 -12q1 -9 1 -13q-1 -9 -6 -11h-1q-1 1 -2 1q-5 18 -23 34q-3 -4 -5 -12q-2 -7 -4 -7q-4 -2 -8 -2q-4 3 -4 8q0 4 9 16q2 3 3 4q10 13 28 41q5 9 8 13v2v15
q-12 -3 -19 -14h-2q-1 1 -5 4q-12 7 -11 14q5 -3 12 -5q17 3 28 19q0 7 1 19q4 23 -7 27v2q19 -2 22 -19q0 -2 -4 -9q-7 -14 -7 -23q18 -8 6 -21q-11 -13 -11 -23zM76 55v-2l13 16v9q-1 -2 -4 -6q-2 -5 -9 -17zM85 14h2l2 45q-12 -13 -22 -28q3 -3 9 -8z" />
    <glyph glyph-name="uni308F" unicode="&#x308f;" 
d="M50 15l23 -19l2 2q0 3 1 14q2 26 4 44q-15 -15 -25 -31q-3 -4 -5 -10zM78 196v3q34 -12 24 -34q-5 -3 -10 -28q8 -7 15 -15v-4q-1 -3 -6 -8l-2 -2q-6 -5 -13 -17q0 -4 -1 -11v-9v-2q44 47 87 47q62 -3 66 -54q-7 -76 -104 -80v2q79 22 84 76q-2 46 -47 48q-41 0 -86 -45
v-42q0 -6 2 -21q1 -14 1 -19q0 -15 -8 -15q-4 0 -5 8q-1 2 -1 3q-8 18 -24 37q-3 -7 -8 -21q-2 -4 -2 -5q-19 -13 -22 4q0 12 12 23q30 34 51 76q0 4 1 11q0 10 1 12q-13 -4 -28 -16q-23 7 -22 23q1 0 5 -2q8 -5 13 -6q13 0 34 22q3 22 3 45q-1 10 -10 16zM61 49v-2l4 -1
q6 6 15 16q0 12 1 20q-4 -7 -3 -5q-13 -22 -17 -28z" />
    <glyph glyph-name="uni3090" unicode="&#x3090;" 
d="M147 20q-15 -1 -16 -17q2 -20 24 -21q20 1 37 19q-18 19 -45 19zM41 44q-6 -10 -6 -21q1 -18 12 -27q8 -1 46 83q-38 -18 -52 -35zM72 180h3q6 -17 63 8q12 -4 17 -20q0 -7 -8 -15l-3 -3q-6 -5 -8 -9q-4 -7 -11 -21l-9 -18q24 6 42 6q67 -1 69 -58q-7 -70 -61 -77
q-39 2 -42 26q3 28 33 31q21 0 45 -16q11 19 11 40q-1 46 -44 47q-23 0 -60 -15q-5 -11 -14 -31q-34 -80 -51 -75q-13 3 -15 34q1 56 73 84q16 39 33 71q1 4 -3 5q-12 0 -30 -14q-8 -6 -10 -6q-19 9 -20 26z" />
    <glyph glyph-name="uni3091" unicode="&#x3091;" 
d="M192 -20h-4q2 2 8 5q13 7 13 14q-4 16 -29 18q-17 0 -38 -26q-15 -17 -23 -17q-5 0 -13 12q-15 19 -28 19q-25 0 -43 -25q-1 -3 -2 -4q-8 -3 -14 5q-8 14 14 24q20 10 58 35l15 9q-18 6 -18 17q3 22 31 23q24 0 25 -15q0 -11 -10 -18q43 11 46 45q-2 28 -38 29
q-26 0 -48 -33q-2 -3 -3 -4q-12 -19 -19 -15q-10 7 5 22q52 49 63 80q-13 0 -29 -9q-10 -5 -15 -5q-19 3 -25 19q2 0 5 -2q7 -4 13 -4q10 0 42 12q16 6 19 6h2q2 -3 7 -6q8 -6 8 -11q0 -4 -8 -6q-5 -1 -6 -2q-7 -9 -23 -26q-10 -11 -15 -17q20 8 34 8q45 -1 47 -37
q-8 -49 -71 -54h-4q-4 -2 -13 -7q-34 -17 -51 -32q8 2 17 2q12 0 26 -9q11 -7 18 -7q10 0 25 13q19 16 35 16q55 -4 61 -44q0 -2 -2 -4q-2 -1 -5 -1q-2 0 -4 2l-3 3q-3 4 -7 4t-13 -1q-8 -1 -13 -1zM132 75q0 11 -16 11q-19 -2 -21 -17q2 -12 20 -14q17 11 17 20z" />
    <glyph glyph-name="uni3092" unicode="&#x3092;" 
d="M181 116v2q10 8 24 -3q17 -15 13 -26q-2 -2 -5 -1q-1 0 -3 1t-4 1q-33 -10 -70 -27v-9q1 -9 1 -13q1 -27 -7 -24q-6 1 -7 18v22q-47 -27 -47 -52q-7 -27 54 -25q24 0 41 4q2 1 3 1q13 -1 14 -11q-1 -9 -15 -9h-9q-11 -1 -17 -1q-84 -1 -79 35q0 36 54 68q-5 29 -22 27
q-26 0 -42 -30q-5 -10 -8 -14q-2 -3 -5 -4q-9 7 -6 23q1 3 6 6l3 3q24 21 45 60q-4 0 -10 -1h-8q-27 1 -37 25l2 1q10 -16 41 -15q3 0 9 1h9q11 22 11 37q-1 8 -13 13v2q30 -1 32 -17q0 -3 -9 -16q-2 -4 -3 -5q-1 -2 -2 -6l-3 -6q17 4 37 12q4 2 5 2q16 -1 18 -8
q-2 -9 -67 -18q-6 -10 -17 -29q-8 -11 -11 -17q13 8 28 8q24 1 29 -28l34 17q15 8 21 11q8 5 6 11q-3 6 -14 4z" />
    <glyph glyph-name="uni3093" unicode="&#x3093;" 
d="M109 183v3q23 7 32 -21q0 -7 -10 -16l-4 -4q-30 -38 -53 -83v-2q15 13 38 13q22 0 28 -44q5 -39 22 -39q45 14 78 56v-2q-32 -67 -78 -69q-29 -1 -36 55q-4 39 -18 39q-44 -8 -69 -85q-3 -9 -8 -9q-4 0 -11 8q-2 3 -3 4q0 7 16 28q1 1 1 2q9 17 40 68q47 77 47 86t-12 12
z" />
    <glyph glyph-name="uni30A1" unicode="&#x30a1;" 
d="M45 153h2l1 -1q8 -9 18 -10q1 0 19 3q74 11 93 12q1 0 2 2q3 4 5 3q8 -2 21 -16q9 -12 5 -16h-4q-5 1 -7 0q-8 -2 -27 -11q-24 -11 -35 -14q-12 -68 -58 -115h-3q45 67 45 125q-2 4 -8 8q-1 1 -2 1v1q14 5 29 -15h2q50 31 41 38q-77 -3 -110 -17l-1 -2q-3 -3 -6 -3
q-20 10 -22 27z" />
    <glyph glyph-name="uni30A2" unicode="&#x30a2;" 
d="M23 187l3 1q4 -13 20 -15q2 0 68 9q67 9 82 11q1 1 3 2q1 2 2 2h1q44 -34 26 -44q-7 0 -13 -1q-3 0 -18 -7q-36 -16 -53 -19q-31 -128 -84 -153q56 76 62 158q-1 15 -14 19q19 9 37 -19q-1 -2 -1 -4q57 34 58 52q-84 0 -141 -22l-2 -2q-5 -5 -11 -5q-22 6 -25 37z" />
    <glyph glyph-name="uni30A3" unicode="&#x30a3;" 
d="M155 87v-46q0 -7 1 -27q1 -7 1 -8q0 -15 -6 -16q-8 2 -10 21q3 10 3 22v54q0 10 -3 16q-36 -38 -72 -51h-2q75 56 103 112q1 3 -3 8l-2 2q16 -2 24 -25q0 -2 -3 -2q-5 -1 -7 -2q-4 -4 -12 -14q-15 -18 -23 -26q11 -9 11 -18z" />
    <glyph glyph-name="uni30A4" unicode="&#x30a4;" 
d="M47 44h-1v2q106 77 137 145q0 5 -6 12l-3 3l2 3q22 -7 34 -33q0 -1 -4 -2q-5 -2 -7 -4q-4 -5 -13 -15q-19 -26 -33 -39q12 -7 13 -22v-47q0 -15 2 -56v-10q-1 -13 -9 -15q-11 5 -13 28q0 3 1 9q4 16 4 33v61q0 12 -3 14q-39 -36 -101 -67z" />
    <glyph glyph-name="uni30A5" unicode="&#x30a5;" 
d="M109 156v2q11 10 27 -11q0 -2 -1 -4q-4 -4 -4 -14v-5q30 2 41 2q2 0 8 2q5 2 7 2h2q13 -10 14 -19l-9 -6q-28 -81 -85 -112h-2q62 56 74 124q-14 1 -67 -2q-28 -2 -36 -2h-6v-7q0 -8 2 -30q1 -8 1 -9q0 -10 -5 -10q-7 2 -9 14l1 11q2 17 2 18q0 21 -11 26q4 4 13 -2
q6 -4 10 -4q12 1 44 3v16q0 17 -11 17z" />
    <glyph glyph-name="uni30A6" unicode="&#x30a6;" 
d="M198 140v2q-17 0 -75 -4q-46 -3 -62 -3q0 -8 2 -34q2 -18 2 -21q0 -12 -8 -14q-9 0 -11 17v1q10 64 -17 69q7 8 23 -4q5 -3 7 -4q14 0 61 5v16q-1 19 -15 28v1q4 7 18 1q17 -7 19 -15q0 -1 -2 -4q-6 -8 -6 -22v-4q8 0 24 1q27 2 39 2q5 3 11 4q14 -5 19 -21q0 -2 -6 -6
q-5 -3 -6 -5q-48 -124 -116 -146q71 56 99 160z" />
    <glyph glyph-name="uni30A7" unicode="&#x30a7;" 
d="M68 122l2 2q11 -6 21 -6q11 0 50 6q16 2 22 3q1 0 3 2q4 2 5 1q22 -7 14 -16q-2 0 -8 1q-7 1 -13 1q-9 0 -37 -3q2 0 -4 -1q20 -9 17 -22q-3 -7 -4 -16q-2 -16 -8 -32q2 0 7 1q13 1 24 1h32q1 0 4 1q4 2 5 1q22 -14 11 -21q-1 0 -5 1q-34 9 -65 9q-24 0 -64 -10
q-12 -3 -15 -3q-15 4 -21 22q9 -6 19 -7l8 1q32 3 52 4q4 28 4 42q0 19 -11 26q-14 -2 -25 -2q-9 0 -20 14z" />
    <glyph glyph-name="uni30A8" unicode="&#x30a8;" 
d="M16 52h1q8 -13 27 -13q2 0 27 2q28 3 45 4q6 36 6 56q0 23 -14 32q-19 -3 -29 -3q-22 4 -29 23q12 -8 27 -8q58 2 94 11q1 0 2 1q2 1 5 1q10 0 18 -8q10 -11 3 -13q-1 0 -4 1q-16 2 -26 2q-13 0 -55 -6q31 -11 29 -26q-3 -4 -4 -10q-1 -3 -3 -16q-6 -28 -8 -36q52 4 81 4
l1 1q4 2 6 1q1 0 3 -1q11 -5 15 -10q9 -6 5 -15q-4 -2 -21 2q-37 9 -70 9q-44 0 -91 -14q-11 -3 -13 -3q-23 8 -28 32z" />
    <glyph glyph-name="uni30A9" unicode="&#x30a9;" 
d="M54 28h-3q52 44 75 88q-36 -5 -55 -13q-16 5 -20 21q10 -8 21 -8q2 0 20 2q29 4 44 6v15q-1 17 -13 23v3q21 -3 27 -16q0 -1 -2 -4q-4 -5 -4 -8v-12q2 0 7 1q11 1 22 1q1 0 5 2q7 4 9 4q11 -2 19 -14q3 -7 -10 -5q-1 0 -4 1q-15 3 -28 3q-5 1 -14 0h-6v-58q0 -13 3 -47
v-4q-1 -10 -8 -11q-3 0 -6 6q-2 3 -3 4q-5 6 -21 14q-1 1 -2 1v2l24 -5q5 0 5 3v84q-28 -45 -82 -79z" />
    <glyph glyph-name="uni30AA" unicode="&#x30aa;" 
d="M28 143l3 2q10 -12 20 -12q3 0 31 3q41 3 63 5v27q0 18 -21 27q0 4 3 4q31 -8 38 -20q0 -8 -7 -14v-22q7 0 18 1h12q7 1 14 6q0 -1 1 0q39 -8 22 -23q-18 6 -54 6h-13v-136q0 -18 -7 -17q-3 0 -5 6q-2 4 -3 5q-8 10 -34 23q33 -11 35 -4q1 5 1 9v94q-53 -77 -120 -99
q72 44 107 117q-42 -2 -69 -13q-7 -2 -9 -2q-19 6 -26 27z" />
    <glyph glyph-name="uni30AB" unicode="&#x30ab;" 
d="M53 137h3q6 -12 17 -12q14 0 41 4q8 1 12 1q6 14 11 28q0 1 1 3q3 7 3 16q0 3 -1 4q-3 4 -13 8q-1 1 -2 1q1 4 4 4q8 0 18 -5q21 -8 15 -19l-1 -1q-1 0 -3 -3q-5 -10 -8 -21q-3 -6 -6 -13q15 2 30 3q2 0 6 1q16 0 23 4q3 2 6 2q2 0 5 -3q2 -1 3 -2q14 -11 9 -18
q0 -1 -4 -4q-3 -3 -4 -5q-1 -4 -3 -14q-2 -9 -3 -14q-1 -4 -3 -11l-6 -18q-10 -30 -24 -54q-12 -24 -26 -24q-4 0 -4 4q0 5 -2 8q-4 7 -10 15q-2 3 -7 9t-7 9q9 -4 16 -10q1 -1 4 -2q10 -6 16 -6q2 0 5 3q7 6 10 14q12 27 21 54q10 32 10 49q0 3 -3 3q-9 0 -27 -2
q-9 -1 -13 -1t-11 -1q-7 0 -11 -1q-29 -61 -64 -94q-16 -14 -44 -33h-3q51 45 89 120q1 1 1 3q1 2 1 3q-18 -2 -35 -11q-1 0 -3 -1q-3 -2 -6 -2q-4 0 -11 7q-14 15 -12 25z" />
    <glyph glyph-name="uni30AC" unicode="&#x30ac;" 
d="M189 167q48 -15 34 -33q-6 -5 -20 15q-9 13 -14 18zM210 180q36 -2 40 -23q-6 -15 -21 6q-9 9 -19 17zM8 -7h-2q44 38 89 124q-28 -3 -35 -8q-1 0 -3 -2q-4 -2 -7 -2q-19 9 -24 30q12 -11 23 -11q17 1 52 5q13 26 16 43q0 9 -15 16q0 2 3 2q31 -5 34 -19q0 -2 -3 -6
q-4 -6 -7 -13q-2 -4 -6 -14q-2 -5 -3 -7q38 3 52 5q1 0 4 2t5 2q17 -8 22 -21q0 -5 -9 -11l-1 -1q-33 -131 -63 -132q-5 0 -7 11q-5 13 -24 31q37 -24 44 -11q31 59 37 117q-1 1 -3 1q-22 0 -62 -5q-50 -99 -107 -126z" />
    <glyph glyph-name="uni30AD" unicode="&#x30ad;" 
d="M178 167h5q12 -1 12 -8q0 -3 -7 -6q-2 0 -3 -1l-9 -3q-7 -2 -10 -3q-11 -2 -33 -9q-5 -1 -8 -2q1 -2 3 -7q1 -4 2 -7q1 -5 4 -14q4 -13 6 -20q2 1 7 2q8 2 25 8q9 3 18 7l6 3q5 3 10 3h6q10 0 14 -3q6 -6 3 -12q-5 -3 -11 -3h-5q-13 0 -35 -6q-6 -1 -20 -6q-7 -2 -10 -3
q-2 0 -4 -2q11 -41 22 -64q5 -9 9 -20q2 -13 -3 -17t-13 2q-3 2 -6 10q0 3 -1 4q-2 10 -7 29q-9 35 -14 53q-22 -6 -45 -15q-8 -3 -14 -7q-1 -1 -4 -2q-5 -4 -9 -4h-2q-2 1 -3 1q-9 4 -17 10q-1 2 -5 5q-7 6 -6 10l2 1q17 -14 59 -1q8 3 12 4q2 1 5 2q9 2 23 8q-2 6 -5 18
q-6 19 -8 29q-1 0 -2 -1h-1q-6 -3 -18 -7q-5 -1 -8 -2q-2 -1 -7 -2q-12 -4 -20 -4q-3 0 -6 2q-9 4 -17 13v3q1 0 2 -1q8 -2 18 -3h4q12 0 28 6q12 3 24 7q-1 3 -3 10q-3 11 -4 16q-1 2 -2 6q-5 14 -11 19q-4 3 -14 7q-1 1 -2 1q1 0 3 2q1 1 2 1q16 0 31 -5q6 -3 6 -6
q0 -2 -1 -6q-2 -4 -2 -7q0 -6 3 -17q1 -5 2 -8q2 -4 3 -9q20 6 39 15l6 3q7 3 11 3z" />
    <glyph glyph-name="uni30AE" unicode="&#x30ae;" 
d="M183 188q14 0 26 -12q11 -10 8 -18q-7 -9 -16 0q-1 2 -3 5q-9 17 -15 25zM202 201q32 -3 39 -17q3 -11 -3 -14q-7 -3 -14 7q-1 1 -3 4q-11 15 -19 20zM15 68l2 1l2 -1q12 -9 22 -9q8 0 75 22q-1 5 -4 15q-4 11 -10 33q-28 -8 -44 -14q-3 0 -6 -2q-26 4 -31 19l2 1
q14 -7 21 -7q7 -1 54 14q-4 12 -6 22q-5 31 -29 37l6 2q33 -3 37 -14q0 -1 -1 -4q-3 -9 -1 -17q1 -2 3 -11q2 -7 3 -11q30 9 41 17q1 0 1 1q6 5 12 5q16 -1 19 -5q0 -7 -8 -11q-28 -9 -62 -18q0 -2 1 -5q8 -26 15 -43q48 17 52 20q1 1 4 2q6 3 11 3q19 0 22 -9
q0 -10 -17 -11q-11 3 -69 -16q19 -58 24 -68q17 -32 1 -36q-12 1 -16 22q-2 16 -22 78q-57 -20 -68 -29q-33 9 -36 27z" />
    <glyph glyph-name="uni30AF" unicode="&#x30af;" 
d="M156 150h-5q-6 1 -9 7q-1 -1 -4 -5q2 2 -1 -2q-8 -9 -17 -16q-28 -27 -63 -46q-5 -3 -11 -4q30 24 69 71l2 2q12 14 12 22q0 4 -7 10l-2 2q2 3 3 3q8 0 19 -9q7 -7 7 -13q0 -3 -2 -6q0 1 -1 -1v-1q-1 -1 -1 -2l1 -1q5 -2 16 -1q3 1 4 1q11 0 22 5l1 1q6 4 9 2
q10 -6 14 -12q6 -6 6 -11t-8 -9q-4 -2 -7 -11l-1 -2q-2 -2 -4 -7q-5 -8 -8 -12q-19 -35 -55 -74q-34 -35 -83 -56q-1 0 -3 -2q-7 -4 -11 -3q91 57 146 163q8 12 9 20q-5 0 -13 -1q-15 -2 -24 -2z" />
    <glyph glyph-name="uni30B0" unicode="&#x30b0;" 
d="M181 185q27 -3 37 -19q3 -11 -3 -15t-12 5q-9 17 -22 29zM208 199q35 -4 35 -27q-6 -13 -17 4q-2 2 -5 6q-8 12 -13 17zM118 163l-1 -1q18 -8 40 0l6 3t6 2q17 -7 23 -24q0 -3 -7 -6q-3 -1 -4 -2q-2 -2 -10 -16q-70 -122 -155 -149h-3q115 77 152 180h-42q-4 4 -9 7
q-41 -59 -93 -73q57 44 80 93q0 7 -8 13q24 -2 32 -19q0 -3 -4 -6q-2 -1 -3 -2z" />
    <glyph glyph-name="uni30B1" unicode="&#x30b1;" 
d="M100 126h4q12 0 38 5q5 1 8 2q30 4 44 9q1 0 2 1q3 2 5 2q9 0 16 -4q7 -2 13 -5q1 -1 0 -6v-3q-5 -1 -15 0h-7h-4q-12 0 -37 -3q-8 -1 -13 -2q1 -1 3 -4q3 -4 5 -5l4 -4q2 -3 3 -5v-2q2 -3 1 -4q-4 -5 -9 -14q-3 -7 -5 -10q-27 -55 -74 -84l-1 -1q-6 -4 -10 -4
q38 33 69 91q1 2 2 5q8 19 8 28q0 6 -4 11q-18 -3 -36 -4h-4q-11 0 -20 7q0 1 -1 2q0 1 -1 1l-3 -3l-1 -1q-8 -9 -20 -17q-15 -10 -33 -19h-2q51 40 65 84q1 3 1 5q0 7 -8 13q6 2 11 0q13 -9 19 -22q0 -5 -5 -8q-3 -2 -4 -3q-4 -9 -11 -18l-3 -3q-2 -3 -3 -4q6 -4 13 -4z
" />
    <glyph glyph-name="uni30B2" unicode="&#x30b2;" 
d="M195 174q27 -2 33 -16q3 -10 -3 -13q-7 -1 -13 9q-7 12 -17 20zM216 190q34 -1 35 -19q0 -7 -6 -6q-5 1 -11 9q-5 7 -18 16zM53 -15h-2q63 62 80 125q0 6 -5 11q-23 -5 -40 -5q-15 0 -26 9q-24 -28 -55 -39q35 31 54 63q16 29 5 40q5 3 9 -1q26 -19 15 -29q-3 -1 -11 -13
q-7 -10 -12 -16q7 -5 16 -5q53 5 88 16q6 4 14 4q32 -5 22 -18q-12 4 -56 -3q-13 -2 -19 -3q17 -13 17 -26q-3 -5 -6 -11q-32 -68 -88 -99z" />
    <glyph glyph-name="uni30B3" unicode="&#x30b3;" 
d="M155 25h-5q-16 0 -33 -3q-18 -1 -35 -8q-3 -2 -7 -2q-8 0 -20 12q0 1 -1 2q-8 8 -7 15h2q8 -7 19 -11h1h4q45 5 8 1q37 4 80 7h7q3 12 8 36q3 12 4 18q1 4 3 13q3 14 3 21q0 6 -8 7h-8q-8 0 -24 -2q-11 -2 -16 -2q-5 -1 -14 -2q-9 -2 -14 -3q-1 0 -4 -1q-9 -1 -12 -3
q-2 0 -4 -2q-3 -2 -5 -2q-5 0 -13 6l-1 1q-13 12 -11 19q2 0 5 -3q3 -2 4 -2q4 -3 11 -3h4q7 0 22 2q10 2 15 2q17 3 33 4q4 1 13 1q12 1 17 3q1 0 3 2q3 2 5 2q6 -1 11 -7q7 -6 13 -13q0 -1 1 -2q1 -3 1 -5q-7 -3 -12 -18v-1q-1 -4 -3 -13q-3 -9 -4 -14q-6 -19 -10 -39
q9 -1 10 -8q0 -9 -10 -8q-12 3 -26 3z" />
    <glyph glyph-name="uni30B4" unicode="&#x30b4;" 
d="M181 169q32 -4 34 -25q0 -5 -4 -6q-5 -1 -9 4q-2 3 -7 9q-8 13 -14 18zM200 188q35 0 38 -19q-1 -7 -6 -7t-14 10q-11 13 -18 16zM21 142h1q7 -8 21 -8q80 6 109 12l2 2q3 2 5 2q18 -5 24 -24q0 -2 -5 -6l-2 -1q-2 -7 -12 -46q-6 -27 -9 -38q8 -1 10 -5q2 -6 -3 -9
q-6 -1 -20 1h-5q-34 0 -82 -12q-6 -1 -7 -1q-18 3 -30 26q0 3 2 4q10 -12 23 -13q2 0 36 4q50 5 64 6q14 65 14 91q0 6 -4 6q-13 0 -79 -10q-17 -2 -18 -2t-2 -1q-6 -4 -8 -4q-21 5 -25 26z" />
    <glyph glyph-name="uni30B5" unicode="&#x30b5;" 
d="M164 124v2h-7q-28 0 -63 -5v-7q0 -7 2 -22q1 -15 1 -22v-13q-1 -7 -8 -8q-3 2 -5 5q-3 6 -4 14v5q-1 8 0 12v34q-1 -1 -4 -1q-3 -1 -4 -1h-2q-7 -1 -17 -4q-1 -1 -4 -2q-6 -3 -10 -3q-7 0 -20 10l-1 1q-1 1 -2 3q-5 5 -5 9v4q2 0 5 -2q2 -2 3 -2q6 -3 14 -4h5q5 0 17 2
q8 2 12 2q3 0 7 1h6v25q0 15 -15 26q0 2 3 2q10 0 15 -4q13 -6 14 -15q-3 -8 -3 -16v-17q3 0 9 1q6 0 9 1q25 2 52 2v22q-1 24 -18 36v2q9 5 22 -4l3 -3q13 -9 13 -16q0 -4 -3 -8q0 -1 -1 -2t-1 -2v-25h20q6 0 19 4q3 1 4 1q8 0 14 -4q8 -4 9 -11q0 -9 -5 -9q-4 0 -12 2
q-4 1 -6 1q-21 4 -43 5v-1q0 -72 -32 -116q-11 -16 -28 -28l-2 -2q-6 -5 -10 -4q55 53 57 149z" />
    <glyph glyph-name="uni30B6" unicode="&#x30b6;" 
d="M191 185q35 -6 39 -23q-1 -10 -9 -8q-7 2 -14 14q-4 5 -16 17zM218 199q34 -4 35 -22q0 -7 -7 -7q-5 0 -10 8q-2 2 -6 7q-7 10 -12 14zM3 131v4q11 -11 22 -11q2 0 14 2q19 2 33 4v26q-1 16 -17 22v2q22 4 32 -15q0 -4 -2 -9v-24q30 3 68 5v27q0 14 -11 29q-3 3 -3 4
q9 6 27 -11q13 -10 10 -17q0 -1 -2 -3q-3 -5 -3 -13v-16h30q2 0 6 2q3 1 5 1q14 -1 23 -10q7 -10 -6 -11q-6 0 -19 1q-21 3 -39 4q-7 -119 -72 -149q52 53 54 149h-6q-37 0 -62 -4v-20q0 -8 1 -27q1 -9 1 -10q0 -14 -7 -14q-8 3 -10 24q0 2 1 9q1 6 1 8v28q-11 -2 -27 -6
q-14 -4 -17 -4q-21 8 -25 23z" />
    <glyph glyph-name="uni30B7" unicode="&#x30b7;" 
d="M47 185v2q6 -1 20 -6q3 -1 5 -2q9 -3 17 -7q1 0 3 -1q9 -4 10 -7t1 -7q0 -6 -3 -8q-8 -4 -21 6q-23 19 -32 30zM26 118q13 -7 37 -10q24 -2 24 -16q0 -8 -8 -8q-6 1 -13 4q-2 1 -5 2q-8 4 -12 7q-6 2 -15 10l-3 3l-1 1q-5 4 -4 7zM39 22l2 1q13 -17 25 -13q4 2 12 7
q7 4 11 6q9 6 25 16q17 11 25 16q51 35 92 80v-3q-4 -8 -16 -24q-1 -1 -1 -2q-24 -30 -53 -57q-30 -26 -64 -47q-1 -1 -4 -3q-8 -6 -11 -11q-6 -9 -12 -5q-10 6 -15 11q-16 16 -16 28z" />
    <glyph glyph-name="uni30B8" unicode="&#x30b8;" 
d="M47 188h1q9 -4 30 -12q11 -4 16 -6q19 -11 3 -22q-15 1 -50 40zM25 118q8 -4 28 -7q23 -3 27 -9q9 -16 -6 -18q-32 12 -49 34zM39 25h2q10 -14 20 -14q86 35 170 124v-3q-48 -84 -150 -140q-1 -1 -3 -4q-2 -6 -6 -6q-31 19 -33 43zM155 158q37 -1 41 -22q-5 -13 -18 1
q-11 13 -23 21zM182 174q38 0 37 -19q-4 -10 -16 2q-13 13 -21 17z" />
    <glyph glyph-name="uni30B9" unicode="&#x30b9;" 
d="M167 158l-2 1q-4 -1 -11 -2q-16 -2 -25 -4q-24 -3 -32 -12l-4 -2q-1 -2 -2 -2q-7 0 -18 9q-12 10 -11 21q3 -1 7 -5q3 -2 4 -3q5 -3 10 -3q14 0 34 6q23 3 42 7q6 2 11 5q3 3 6 3q4 0 11 -7l1 -1q9 -6 9 -13q-1 -7 -13 -14q-6 1 -12 -15q-2 -3 -6 -8q-7 -11 -12 -16
q-9 -13 -19 -26q11 -3 20 -8q14 -6 25 -14q30 -15 41 -29q6 -5 9 -11q2 -12 -2 -16q-5 -2 -11 0q-6 4 -11 10q-5 5 -14 15q-16 17 -25 25q-3 2 -10 7q-16 14 -25 18q-4 -4 -10 -9q-26 -30 -70 -51q-16 -8 -27 -9q39 21 76 58q38 41 56 74q8 11 10 21z" />
    <glyph glyph-name="uni30BA" unicode="&#x30ba;" 
d="M208 199q40 -6 37 -27q-4 -12 -16 5q-9 13 -21 22zM187 185q32 -12 32 -30q0 -7 -6 -7q-7 0 -10 7q-6 19 -16 30zM13 -2h-2q94 59 141 155q-47 -6 -68 -13q-4 -1 -8 -6q-2 -2 -3 -2q-24 7 -28 29l2 1q8 -11 20 -11q24 2 76 14q8 2 15 7q16 -3 23 -19q-1 -8 -10 -13
q-6 0 -12 -11q-1 -3 -2 -4q-14 -24 -38 -52q75 -27 95 -63q4 -15 -7 -18q-10 0 -20 17q-29 36 -71 62q-47 -53 -103 -73z" />
    <glyph glyph-name="uni30BB" unicode="&#x30bb;" 
d="M40 89h5q10 0 32 9q14 5 29 9v44q0 13 -6 21q-6 7 -14 11q1 0 2 1q4 2 6 1q9 -1 16 -6q1 -1 5 -3q8 -5 10 -8q2 -4 0 -14q0 -2 -3 -6q-2 -4 -3 -7q-1 -6 -1 -16v-14q32 9 63 16l9 3q6 1 9 2q1 0 2 1q4 3 6 2q8 -4 15 -11q12 -7 12 -15q0 -6 -8 -6h-5h-1q-9 -3 -25 -15
q-4 -2 -11 -7q-11 -7 -17 -10h-3l5 5q15 15 22 24q11 10 13 21h-4q-8 0 -22 -4q-4 -1 -5 -1q-15 -3 -29 -8q-13 -3 -26 -7v-56q0 -20 11 -29q12 -9 34 -9h6q14 0 29 2q2 0 6 1q7 2 11 2h4q13 0 15 -5q0 -12 -21 -13q-2 0 -7 -1h-7h-33q-31 1 -49 19q-10 15 -10 46
q-1 20 -1 39q-1 0 -2 -1q-1 0 -2 -1q-30 -7 -45 -20q-1 0 -2 -1q-3 -3 -7 -3q-6 0 -17 9l-2 2q-8 7 -7 12q2 0 6 -2q3 -2 5 -2h4q2 -1 3 -1z" />
    <glyph glyph-name="uni30BC" unicode="&#x30bc;" 
d="M190 165q42 -9 44 -29q-5 -13 -17 0q-12 15 -27 29zM212 182q38 -4 42 -23q0 -7 -5 -8q-4 -2 -8 3q-14 20 -29 28zM2 93l2 1q7 -7 14 -7q4 0 30 8q24 7 38 11q-2 63 -2 50q0 15 -15 24q21 5 37 -18q0 -5 -4 -12q-3 -6 -3 -10q-1 -6 -1 -15v-16q28 8 78 21q1 0 3 1
q3 2 5 2q5 0 14 -8q2 -1 3 -2l1 -1q10 -7 10 -14q0 -5 -9 -6q-6 0 -8 -2q-2 -1 -13 -8q-31 -20 -39 -23h-2q32 27 41 51q-2 2 -5 1q-51 -12 -79 -21v-49q-2 -46 46 -44q17 0 42 4q10 1 13 1q17 -1 12 -11q-4 -8 -35 -8h-37q-52 1 -53 63v19v22q-34 -12 -51 -23q-5 -3 -7 -3
q-19 4 -26 22z" />
    <glyph glyph-name="uni30BD" unicode="&#x30bd;" 
d="M41 167q13 -6 25 -15q26 -20 26 -41q1 -8 -8 -8q-6 1 -10 4q-1 2 -2 7l-3 6q-12 30 -28 47zM180 180q7 0 18 -11q7 -5 13 -14q0 -1 1 -1q3 -4 3 -8q-1 -3 -5 -5h-1q-1 -1 -4 -2q-3 -2 -5 -3q-3 -4 -8 -14q-1 -3 -2 -4q-48 -90 -101 -120q-2 -1 -5 -3q-12 -6 -19 -7
q39 28 67 67q33 47 50 86q7 16 4 24q-5 7 -11 13q2 3 5 2z" />
    <glyph glyph-name="uni30BE" unicode="&#x30be;" 
d="M12 167q50 -22 53 -57q-1 -10 -11 -9q-9 2 -11 14q-11 28 -31 52zM151 180q7 7 26 -13l3 -3q8 -9 8 -16q0 -3 -7 -8l-3 -3q-5 -2 -9 -12l-3 -6q-56 -111 -127 -134q77 62 122 169q4 14 -10 26zM185 188q32 -5 35 -26q0 -7 -7 -9q-5 -1 -8 6q-1 2 -4 7q-8 16 -16 22z
M204 201q37 -2 40 -26q-5 -11 -15 1q-13 19 -25 25z" />
    <glyph glyph-name="uni30BF" unicode="&#x30bf;" 
d="M42 -30h-3q45 27 79 70q3 4 9 11q4 4 16 20q-2 1 -5 5l-2 2q-17 21 -41 35q-14 -12 -32 -23q-2 -1 -5 -3q-6 -3 -9 -3q22 17 40 38q1 2 4 5q28 32 36 52q1 2 -2 6q-1 2 -4 6q-2 4 -4 6q0 2 3 2t11 -4q3 -1 5 -2q1 0 2 -1q11 -6 11 -12q0 -3 -4 -9l-1 -1q-1 0 -1 -1
q4 -2 10 -2q5 0 10 1q16 1 23 6q1 0 2 1q4 4 5 2q1 0 3 -1q6 -3 8 -6q11 -8 11 -16q0 -3 -6 -8l-4 -4q-3 -3 -8 -11q0 -1 -1 -2q-48 -89 -110 -135q-14 -11 -46 -24zM193 162h-12q-5 0 -17 -2q-8 -2 -12 -2q-5 0 -10 7q-2 -2 -5 -7q-4 -5 -6 -8q-14 -19 -32 -34q9 -1 18 -6
q20 -8 27 -16q2 -1 6 -6l3 -3q18 28 32 55l3 6q5 10 5 16z" />
    <glyph glyph-name="uni30C0" unicode="&#x30c0;" 
d="M180 185q34 -5 37 -28q0 -7 -7 -7q-6 1 -10 9q-8 15 -20 26zM204 199q38 -1 40 -27q-6 -12 -16 3q-5 9 -24 24zM14 -30h-2q47 31 98 100q-17 23 -44 43q-25 -21 -49 -29q66 49 80 95q0 5 -5 13q-2 3 -3 5q6 6 30 -14q5 -5 -2 -12q-3 -1 -5 -3q13 -2 42 3q6 3 10 6
q2 2 2 0q19 -8 22 -26q0 -3 -4 -5q-7 0 -11 -9q-1 -2 -2 -3q-68 -127 -157 -164zM119 89q2 -1 2 -3q33 45 40 76q-4 0 -16 -2q-18 -2 -22 -2q-6 0 -14 6q-2 -4 -5 -9q-14 -18 -35 -40q33 -10 50 -26z" />
    <glyph glyph-name="uni30C1" unicode="&#x30c1;" 
d="M146 130v-8v-5q16 1 31 1h7q11 0 20 3h4q20 0 26 -9q3 -7 -2 -10q-4 -2 -15 0q-19 3 -41 3h-11h-20q0 -11 -2 -22q0 -1 -1 -4q-2 -11 -6 -27q-11 -33 -29 -56q-11 -12 -35 -26h-2q46 37 57 123q0 2 1 5q0 3 1 5h-3q-7 -2 -15 -2q-33 -3 -51 -15q-1 0 -2 -1q-5 -4 -9 -4
t-10 4l-1 1q-18 11 -17 22q2 1 5 -2q2 -2 3 -2q11 -6 29 -1q18 3 34 6q7 1 19 3q13 2 19 3q1 7 1 16q0 5 -1 8q-5 10 -14 16q-29 -10 -73 -15q67 22 103 50q3 2 3 5t-4 6l-3 3q0 2 2 2q5 0 15 -5q8 -2 15 -7q0 -1 1 -1q3 -4 3 -8q0 -6 -6 -8q-5 1 -11 -2q-4 -1 -11 -5l-6 -3
q-10 -6 -22 -10q5 0 10 -4q10 -4 16 -13q3 -3 -2 -9v-1z" />
    <glyph glyph-name="uni30C2" unicode="&#x30c2;" 
d="M188 169q31 -6 35 -24q0 -7 -8 -7q-6 1 -10 9q-8 15 -17 22zM209 185q33 -3 38 -23q0 -9 -6 -8q-6 0 -12 10q-1 1 -3 4q-10 12 -17 17zM60 -34h-3q50 42 61 135q-38 -3 -72 -17q-8 -3 -10 -3q-22 7 -26 26l2 1q8 -9 22 -9q3 0 23 4q39 7 62 9v22q0 9 -11 20
q-38 -14 -77 -17q94 33 107 54q0 5 -7 9l-1 1q1 3 4 3q14 -4 27 -14q10 -8 6 -14q-2 -3 -7 -3h-4q-2 1 -18 -7q-15 -7 -26 -11q24 -12 26 -22q0 -2 -1 -5q-2 -4 -2 -6v-8h19q18 0 33 2q3 2 7 2q20 -1 27 -8q7 -10 -7 -12q-3 0 -12 1q-26 4 -50 4q-4 0 -10 -1h-8
q-12 -103 -74 -136z" />
    <glyph glyph-name="uni30C3" unicode="&#x30c3;" 
d="M52 130q26 -10 27 -33q0 -10 -6 -10q-6 1 -7 11q-5 19 -14 32zM103 142q20 -6 28 -25q4 -11 -3 -16q-8 -3 -12 8q-4 19 -13 33zM179 142q18 -5 25 -23q1 -4 -5 -6h-3q-4 0 -5 -2q-44 -89 -96 -109q65 53 87 130q0 2 -4 5l-3 3q1 3 4 2z" />
    <glyph glyph-name="uni30C4" unicode="&#x30c4;" 
d="M30 133q32 -18 36 -44q0 -14 -9 -15q-9 1 -10 15q-4 21 -17 44zM94 150h3q35 -19 35 -45q0 -9 -8 -10t-11 7q-5 29 -19 48zM83 -34h-2q85 78 115 159q4 15 -11 23v2q41 -13 40 -31q-1 0 -4 -2q-3 -1 -5 -2q-3 0 -5 -3q-46 -103 -128 -146z" />
    <glyph glyph-name="uni30C5" unicode="&#x30c5;" 
d="M8 150h2q32 -19 32 -44v-4q0 -7 -3 -9q-4 -1 -8 0q-4 3 -7 13v2q-1 3 -2 8q-8 23 -14 34zM74 167q9 -2 16 -10q5 -3 11 -12q12 -17 7 -32q-2 -4 -9 -2q-7 5 -8 12q-1 3 -2 8q0 3 -3 10q-2 6 -7 16q-3 7 -5 10zM60 -15h-2q48 37 78 81q10 14 17 29q1 3 4 9q10 20 13 31
q5 13 2 20t-10 10q8 5 23 -6q15 -10 15 -20q-1 -2 -5 -4q-5 -1 -6 -3q-3 -4 -6 -14q-2 -5 -3 -8q-26 -63 -78 -101q-19 -14 -42 -24zM186 180q36 -5 38 -30q-6 -13 -21 12q-6 9 -17 18zM210 194q32 -4 38 -25q0 -6 -6 -7q-6 0 -10 6q-10 14 -22 26z" />
    <glyph glyph-name="uni30C6" unicode="&#x30c6;" 
d="M92 180h4q9 0 27 3q6 2 9 2q3 1 10 2q14 2 22 4q3 2 6 3h6q3 -1 5 -1q1 -1 4 -2q10 -3 11 -7q0 -7 -14 -7h-8q-22 0 -61 -8q-2 0 -5 -1q-12 -3 -18 0q-9 4 -17 10l-1 1q-7 6 -7 11q3 1 6 -3q2 -1 3 -2q9 -5 18 -5zM151 92l-6 -7q-1 -6 -4 -12q-9 -28 -23 -53
q-17 -28 -37 -42q-1 -1 -3 -2q-6 -4 -10 -3q21 15 40 60q17 35 23 62v1q2 8 0 11q-3 6 -8 9h-2q-44 -3 -64 -13q-3 -2 -6 -2q-4 0 -11 5l-2 2l-3 3q-12 10 -10 19q3 -1 8 -6l4 -4q6 -3 12 -3t19 2q8 2 12 2q21 4 65 8q15 1 23 2q3 0 9 1q14 0 21 3q1 0 2 1q2 1 6 1
q9 0 17 -4q1 0 2 -1q6 -4 6 -7q0 -9 -8 -9q-2 0 -6 1t-6 1q-15 3 -31 3h-4q-23 0 -46 -4q5 -3 9 -7q6 -5 11 -11v-2q2 -4 1 -5z" />
    <glyph glyph-name="uni30C7" unicode="&#x30c7;" 
d="M45 190q11 -9 26 -10q57 3 81 14q17 -1 21 -10q0 -7 -14 -7q-19 0 -65 -7q-17 -3 -20 -3q-21 3 -29 23zM197 169q29 -8 30 -27q0 -9 -6 -7t-10 13q-5 12 -14 21zM216 185q26 -2 34 -18q3 -11 -2 -13q-6 -2 -11 7q-8 12 -21 24zM128 93q-2 -4 -3 -9q-1 -2 -1 -3
q-24 -82 -79 -108q50 47 64 124q1 8 -7 20q-50 -4 -68 -19q-26 10 -29 28q12 -9 25 -10q1 0 14 2q93 12 128 13q7 3 15 4q13 -1 19 -10q5 -11 -6 -12q-2 0 -10 1q-26 4 -52 4q-16 0 -30 -1q22 -15 20 -24z" />
    <glyph glyph-name="uni30C8" unicode="&#x30c8;" 
d="M102 106v-30q1 -31 4 -64v-6q1 -6 1 -9v-4v-5q-1 -4 -1 -6v-1q-3 -14 -8 -15q-4 1 -7 7q-2 4 -4 14q-1 4 -2 6t1 8q1 3 1 5q3 12 3 37v133q0 9 -3 13q-3 7 -12 12q4 3 7 3q16 -1 27 -14q5 -9 3 -14l-2 -1q-3 -4 -4 -6q-3 -6 -3 -20q-1 -10 -1 -30v-9q15 -2 32 -5
q17 -6 34 -17q13 -9 13 -18t-8 -10q-5 0 -13 7l-1 2l-4 4q-4 5 -8 8q-7 9 -17 13q-12 7 -28 12z" />
    <glyph glyph-name="uni30C9" unicode="&#x30c9;" 
d="M136 156q37 -4 40 -22q-1 -8 -7 -8q-6 1 -13 11q-8 10 -20 19zM160 174q33 0 40 -19q-5 -13 -17 -2q-10 13 -23 21zM87 109v-69q0 -7 2 -22q2 -14 2 -22q-1 -24 -10 -30q-10 8 -12 46q5 7 5 33q1 22 1 43v84q0 22 -19 29q23 8 40 -19q0 -1 -2 -4q-7 -10 -7 -28v-37
q69 -14 76 -45q0 -21 -34 12q-20 20 -42 29z" />
    <glyph glyph-name="uni30CA" unicode="&#x30ca;" 
d="M128 140v25q0 25 -13 29q-5 1 -6 5q21 6 40 -19q0 -7 -5 -12v-14q0 -14 -1 -29q15 2 42 2q11 2 20 6q18 0 29 -8q12 -13 0 -15q-1 0 -6 1q-31 4 -54 4q-17 0 -31 -1q-8 -121 -74 -150q47 39 58 149q-68 -6 -75 -13l-1 -1q-4 -5 -9 -5q-28 14 -26 30q12 -10 19 -10
q2 0 22 2q44 6 71 8v16z" />
    <glyph glyph-name="uni30CB" unicode="&#x30cb;" 
d="M54 142h1q17 -8 36 -8q18 0 63 6q18 2 19 2q28 -5 16 -17q-11 3 -45 -2q-35 -5 -56 -5q-22 2 -34 24zM15 54q11 -9 29 -10q4 0 29 3q64 7 91 7q3 0 25 -1h17q1 0 4 1q5 1 8 0q27 -9 22 -20q-1 -5 -8 -5q-1 0 -7 2q-36 10 -76 10q-56 0 -99 -14q-4 -2 -5 -2q-33 16 -30 29
z" />
    <glyph glyph-name="uni30CC" unicode="&#x30cc;" 
d="M42 -18h-3q48 31 99 95q-24 24 -54 41h2q28 -8 61 -29q28 38 40 76v2q-45 -4 -68 -14q-2 -1 -4 -3q-3 -2 -4 -2q-25 10 -27 26q7 -8 23 -8q35 4 75 12q2 1 6 4q3 2 5 3q16 -5 24 -22q0 -6 -11 -11q-1 -1 -2 -1q-23 -44 -43 -72q38 -31 38 -50q-1 -9 -9 -9q-8 1 -14 10
q-13 19 -27 35q-42 -54 -107 -83z" />
    <glyph glyph-name="uni30CD" unicode="&#x30cd;" 
d="M110 212h1q3 -7 23 -15q25 -9 25 -20q-7 -12 -30 9l-6 6q-12 8 -13 20zM157 92h2q37 -14 58 -36q14 -15 7 -26q-8 -5 -21 14q-26 34 -46 48zM31 34h-2q52 28 92 66q-1 0 -2 1v2q3 0 5 -1q23 20 32 38v1q-55 -9 -70 -14q-1 0 -3 -1q-3 -2 -5 -2q-19 5 -23 21l2 -2
q4 -7 19 -6q69 11 88 17l1 1q2 3 6 3q3 0 8 -6l2 -2q9 -4 8 -10q1 -6 -13 -6q-5 -2 -9 -9q-18 -18 -31 -30q1 0 2 -1q9 -8 4 -16v-58q0 -5 1 -22q1 -5 1 -6q-2 -29 -12 -21q-5 6 -10 24q0 4 2 7q1 0 1 1q6 20 6 37v38q0 4 -2 10q1 -1 0 2q-49 -39 -98 -56z" />
    <glyph glyph-name="uni30CE" unicode="&#x30ce;" 
d="M172 186q18 6 40 -28q0 -4 -6 -9q-7 -5 -10 -10q-68 -127 -152 -159q97 74 142 182q2 14 -14 24z" />
    <glyph glyph-name="uni30CF" unicode="&#x30cf;" 
d="M9 30h-3q25 17 43 41q22 24 31 43q0 1 1 2q1 2 1 5t-1 5q0 2 -3 5t-3 6h2q3 1 4 0q9 -4 18 -11l1 -1q7 -6 7 -11q0 -1 -2 -4q-1 0 -2 -1t-4 -2q-3 -2 -5 -3q-10 -16 -22 -30q-3 -2 -9 -8q-6 -5 -9 -8q-13 -13 -45 -28zM157 131v2q58 -25 84 -62q9 -14 9 -24q1 -8 -8 -8
q-2 0 -5 1q-4 1 -11 11q-2 3 -3 4q-23 41 -66 76z" />
    <glyph glyph-name="uni30D0" unicode="&#x30d0;" 
d="M69 130l2 3q9 -1 21 -15q9 -12 3 -15q-4 -2 -10 -10q-2 -4 -3 -5q-32 -37 -77 -60h-3q63 56 74 87q0 4 -4 10q-2 3 -3 5zM148 124h2q81 -39 87 -78q-1 -15 -12 -11q-10 5 -19 25q-25 41 -58 64zM194 150q36 -2 37 -23q-5 -12 -17 0q-8 13 -20 23zM212 169q41 -1 42 -23
q-3 -11 -15 -1q-15 17 -27 24z" />
    <glyph glyph-name="uni30D1" unicode="&#x30d1;" 
d="M5 25h-2v2q41 31 60 58q14 19 14 29q0 3 -4 8q-3 2 -4 4q2 4 4 4q5 0 14 -8l4 -4l2 -2q8 -7 8 -12q1 -2 -2 -3q-5 -2 -8 -8q-1 -2 -4 -5q-10 -14 -18 -20q-9 -9 -19 -17q-21 -14 -45 -26zM144 124h2q27 -12 50 -30q37 -27 36 -50q-1 -10 -8 -10q-6 1 -9 7l-6 12l-9 15
q-6 9 -14 18q-14 18 -42 38zM229 169q22 -2 24 -25q-1 -24 -24 -25q-24 2 -26 25q1 24 26 25zM229 124q18 1 19 20q-2 19 -19 21q-20 -1 -21 -21q2 -18 21 -20z" />
    <glyph glyph-name="uni30D2" unicode="&#x30d2;" 
d="M90 106h4q35 1 69 17q3 3 7 3q8 0 14 -4q6 -2 6 -8q0 -7 -5 -8q-3 0 -10 -1q-6 0 -10 -1q-9 -2 -24 -4h-3q-5 -1 -14 -3q-15 -3 -23 -3h-6q-6 0 -17 5q-3 1 -4 2v-17v-43q0 -23 11 -32q15 -11 42 -11h15q21 0 42 8q9 3 18 3q15 0 15 -7q0 -4 -1 -7q-2 -3 -8 -5
q-5 -2 -18 -3q-5 -1 -7 -1q-3 0 -8 -1h-9h-30q-38 -1 -56 11q-20 14 -20 50v106q0 6 -1 12q-2 6 -7 10q-6 7 -13 11q2 3 5 3q5 0 18 -6q2 -1 3 -1q20 -9 15 -19q0 -2 -2 -4q-1 -1 -1 -2q-1 -24 -3 -48h3q6 -2 13 -2z" />
    <glyph glyph-name="uni30D3" unicode="&#x30d3;" 
d="M166 162q39 -9 42 -26q0 -9 -7 -9t-14 10q-7 11 -21 25zM186 177q41 -2 44 -22q-5 -14 -21 1q-8 14 -23 21zM59 60v-16q-2 -50 49 -48q24 0 61 8q15 3 18 3q22 -2 13 -17q-13 -7 -55 -8h-29q-68 0 -68 59v111q1 21 -22 30q17 8 44 -18q0 -4 -3 -9q-6 -7 -6 -19v-13v-16
q9 -2 18 -2q26 0 66 15q10 4 12 4q29 -3 17 -19q-48 -10 -87 -11q-12 0 -26 7v-3q-2 -17 -2 -38z" />
    <glyph glyph-name="uni30D4" unicode="&#x30d4;" 
d="M205 197q24 -3 26 -28q-2 -25 -26 -27q-26 2 -28 27q2 26 28 28zM205 190q-21 -1 -22 -21q2 -19 22 -21q19 1 20 21q-2 18 -20 21zM77 106h4q34 0 68 17q3 3 7 3q9 0 15 -4q6 -2 6 -8q0 -7 -5 -8q-3 0 -10 -1q-7 0 -11 -1q-13 -3 -27 -4q-4 -1 -12 -2q-16 -4 -25 -4h-5
q-7 0 -18 5q-3 1 -4 2v-17v-43q0 -24 12 -32q13 -11 42 -11h14q22 0 43 8q8 3 17 3q16 0 16 -7q3 -18 -52 -17h-30q-38 0 -55 11q-20 13 -20 50v106q0 6 -1 12q-2 6 -7 10q-6 7 -14 11q2 3 5 3q7 0 21 -7q21 -9 16 -19q0 -2 -3 -9l-1 -3q-1 -22 -3 -42q9 -2 17 -2z" />
    <glyph glyph-name="uni30D5" unicode="&#x30d5;" 
d="M60 159h5q8 0 23 2q11 2 16 2q29 1 58 4q6 1 16 1q10 1 15 1q2 0 5 2q4 3 6 3h1q2 -2 7 -5q7 -5 10 -8q5 -4 5 -10q0 -3 -3 -7q-1 -1 -3 -2q-3 -2 -4 -3q-4 -3 -5 -7q-1 -3 -4 -10q-12 -29 -22 -43q-18 -26 -31 -39q-21 -25 -61 -52q-1 -1 -3 -2q-7 -4 -11 -4
q21 18 39 38q45 50 64 90q14 28 14 45q0 3 -3 3h-5q-13 0 -40 -3q-8 -2 -12 -2q-19 -1 -39 -4h-6q-17 -2 -25 -6q-3 -1 -6 -3q-9 0 -22 13l-2 2q-9 11 -8 17q4 1 8 -4q2 -1 3 -2q9 -6 20 -7z" />
    <glyph glyph-name="uni30D6" unicode="&#x30d6;" 
d="M5 172h2q10 -13 28 -14q2 0 84 7q49 4 50 4t3 2q2 1 4 1q14 -6 24 -21q0 -4 -8 -9q-5 -2 -5 -3q-51 -110 -128 -154h-3q90 86 115 168q0 2 -1 4q-94 -5 -130 -15l-1 -1q-3 -4 -7 -4q-27 18 -27 35zM192 194q34 -7 35 -23q-1 -6 -6 -7q-5 0 -9 6q-5 9 -20 24zM219 204
q31 -5 32 -23q0 -7 -6 -7q-5 1 -9 9q-7 14 -17 21z" />
    <glyph glyph-name="uni30D7" unicode="&#x30d7;" 
d="M228 209q24 -2 26 -27q-1 -25 -26 -26q-24 2 -26 26q1 26 26 27zM248 182q-1 20 -20 21q-20 0 -20 -21q1 -18 20 -19q20 1 20 19zM2 167h2q10 -16 31 -17h4q12 0 38 4q11 1 16 2q27 3 52 7q2 0 6 1q11 1 16 3l1 1q2 1 5 1h2q10 -7 24 -24v-1q0 -4 -6 -5q-4 -1 -5 -2
q-6 -8 -10 -19q-40 -82 -90 -119q-16 -12 -36 -22h-3q60 43 100 124q17 33 21 51q-1 1 -3 1h-4q-7 0 -20 -2q-5 -1 -7 -1q-19 -2 -37 -5q-28 -2 -54 -8q-6 0 -9 -3q-1 0 -2 -1q-2 -2 -6 -3q-3 0 -6 3q-6 6 -11 12q-10 12 -9 22z" />
    <glyph glyph-name="uni30D8" unicode="&#x30d8;" 
d="M6 88q3 1 8 -1q3 -2 4 -2q9 -2 14 0q6 3 15 12q7 6 22 16l9 6q2 1 5 4q8 7 14 7q8 0 21 -10q2 -1 3 -2q15 -12 30 -25q17 -12 33 -22q15 -9 30 -17q2 -1 5 -2q15 -7 22 -11q13 -10 9 -23q-3 -5 -7 -4q-25 12 -68 44q-3 3 -10 8q-22 16 -32 26q-9 9 -18 17q-10 11 -17 12
q-8 0 -17 -9q-1 -1 -4 -3q-25 -21 -33 -33l-2 -2q-4 -5 -9 -5q-11 1 -20 7l-1 1q-7 6 -6 11z" />
    <glyph glyph-name="uni30D9" unicode="&#x30d9;" 
d="M209 35q-32 22 -74 59q-30 27 -38 27q-15 -1 -53 -45q0 -1 -1 -2q-3 -5 -8 -5q-27 3 -28 17q3 0 7 -2q4 -1 6 -1q12 0 38 24q26 23 37 23t39 -23q43 -35 83 -55q3 -1 8 -4q27 -9 25 -23q-1 -19 -41 10zM172 148q41 -4 43 -26q-3 -12 -17 2q-15 18 -26 24zM202 165
q34 -3 37 -23q0 -7 -5 -7q-4 1 -9 8q-10 13 -23 22z" />
    <glyph glyph-name="uni30DA" unicode="&#x30da;" 
d="M7 89q3 1 6 -2q2 -2 3 -2q10 -4 28 12l2 2q2 1 5 4q9 7 24 18q14 12 22 12q7 0 18 -9q5 -4 17 -13l2 -2q8 -5 23 -17t22 -18q28 -21 53 -29q3 -2 4 -2q11 -6 14 -20q1 -18 -26 -2l-18 12q-7 6 -11 8q-39 31 -60 51q-8 10 -17 16l-3 3q-11 10 -19 10q-4 0 -13 -6l-1 -1
q-21 -17 -32 -32q0 -1 -2 -2q-8 -11 -15 -11q-4 0 -7 2q-20 7 -19 18zM208 162q24 -2 26 -26q-1 -24 -26 -25q-24 2 -26 25q2 24 26 26zM208 116q19 1 20 20q-1 19 -20 20q-19 -1 -20 -20q1 -19 20 -20z" />
    <glyph glyph-name="uni30DB" unicode="&#x30db;" 
d="M53 81h2q4 -12 4 -25q-3 -20 -11 -47q-3 -7 -9 -7q-10 -1 -10 15q0 9 10 23q14 21 14 41zM168 86h1q33 -23 50 -46q8 -12 8 -22v-4q0 -7 -8 -7t-11 10q-12 30 -40 69zM131 90v-51q0 -6 1 -18q1 -10 1 -15v-5q0 -8 -1 -14v-2q-1 -10 -8 -10q-6 0 -7 5q-7 16 -29 32
q5 0 14 -4q9 -3 14 -3q3 1 4 5v104q-7 0 -21 -2q10 2 -2 0q-5 0 -16 -1q-10 -1 -16 -2q-2 0 -5 -1h-3q-3 0 -5 2q-7 4 -14 10l-4 4q-6 5 -5 9q4 -1 9 -5l6 -3q8 -3 18 -3h4q10 0 31 2q14 2 21 2l2 1v34q0 20 -13 29l2 4q7 -1 21 -9q7 -2 8 -6q2 -3 0 -10q0 -2 -2 -8
q-1 -5 -2 -8q0 -4 -1 -12q0 -7 -1 -11v-2q6 1 16 2q11 1 16 1q12 0 24 2q2 0 4 1q3 1 4 1q7 0 13 -3l2 -2q4 -2 5 -5q0 -5 -3 -8q-3 -1 -6 -1h-7q-6 1 -9 1q-8 1 -14 1h-9q-13 0 -27 -2h-9v-13q-1 -8 -1 -13z" />
    <glyph glyph-name="uni30DC" unicode="&#x30dc;" 
d="M42 81h2q2 -7 3 -20q-1 -27 -14 -57q-13 -9 -18 12q0 13 10 26q14 16 17 39zM154 86h1q47 -31 57 -64q2 -11 -4 -14q-7 -3 -12 5q-20 47 -42 73zM183 167q32 -4 35 -24q0 -9 -5 -8q-6 1 -12 12q-7 11 -18 20zM204 182q28 -2 37 -14q3 -8 -3 -11q-5 -2 -11 5q-1 1 -3 4
q-12 12 -20 16zM117 116v-30q0 -15 4 -66q1 -15 1 -16q0 -27 -10 -27q-5 1 -8 7q0 10 -28 28q34 -13 31 -3q1 8 1 16v90q-22 -2 -54 -7q-9 -1 -10 -1q-26 8 -29 26q10 -9 25 -10q4 0 29 2t39 3q0 68 -16 62q17 9 32 -18q0 -1 -1 -4q-5 -18 -6 -39q10 1 29 3q21 1 28 2
q3 2 7 2q28 -3 18 -19q-2 -1 -16 0q-16 1 -27 1q-13 0 -39 -2z" />
    <glyph glyph-name="uni30DD" unicode="&#x30dd;" 
d="M208 156q-24 2 -26 27q1 25 26 26q25 -2 27 -26q-1 -26 -27 -27zM230 183q-1 20 -22 21q-20 -1 -21 -21q1 -20 21 -21q21 1 22 21zM160 84h1q21 -13 38 -32q20 -22 20 -37q1 -8 -8 -8q-7 0 -12 8l-3 6q-18 45 -36 63zM46 78h2q0 -2 1 -5q2 -10 2 -16v-5q0 -23 -9 -43
q-3 -10 -8 -12t-8 0q-2 2 -3 9q-1 2 -1 3v1v5q0 8 6 15q16 23 18 48zM124 112v-49q0 -8 1 -24t1 -25v-11q0 -20 -5 -27q-2 -3 -8 -3q-3 1 -4 5q0 3 -1 4q-2 5 -9 12q-9 11 -19 18q14 -3 27 -7h2q5 1 5 12v6q0 9 -1 27q-1 17 -1 25v39q-4 0 -14 -1t-15 -2q-9 0 -20 -2
q-7 -1 -13 -4q-3 0 -7 2q-1 1 -2 1q-8 4 -11 8q-9 7 -8 16l2 1q12 -12 22 -12q8 0 24 2q8 1 12 1q15 2 30 3v34q0 21 -16 28v2q7 6 21 -4q14 -9 14 -18q0 -6 -3 -13t-3 -16q-1 -5 -1 -11q1 -1 4 0h2q4 0 12 1q15 1 23 2q2 0 5 1q8 1 13 3q2 1 5 1q9 0 17 -4q8 -7 5 -14
q-3 -3 -8 -3q-4 0 -14 1q-9 1 -14 1h-5q-9 0 -27 -2q-9 -1 -14 -1h-4v-3z" />
    <glyph glyph-name="uni30DE" unicode="&#x30de;" 
d="M215 131l-2 1q-133 -10 -165 -21q-1 0 -4 -1q-5 -2 -8 -2q-23 3 -25 32h2q6 -11 17 -11q14 0 103 7q67 6 75 6q1 0 3 1q5 2 6 2q24 -11 28 -33q-1 -6 -8 -7q-7 0 -15 -6q-37 -32 -82 -53q14 -14 14 -33q0 -7 -7 -8q-6 -1 -11 6q-21 45 -51 65h2q29 -6 49 -26q74 53 79 81
z" />
    <glyph glyph-name="uni30DF" unicode="&#x30df;" 
d="M87 187v1q14 -12 50 -19q39 -8 39 -25q0 -5 -3 -6q-2 -1 -8 2q-6 4 -23 11q-39 14 -55 36zM81 116q3 1 9 -4l3 -3q13 -9 45 -14q34 -5 34 -19q0 -13 -22 -3q-6 3 -19 8q-36 11 -50 35zM65 39q4 0 12 -6q4 -3 6 -4q13 -8 52 -15q56 -9 56 -31q-2 -13 -15 -6q-12 9 -48 22
q-33 12 -44 20q-10 9 -19 20z" />
    <glyph glyph-name="uni30E0" unicode="&#x30e0;" 
d="M24 39h2q7 -13 29 -13h4q49 85 58 109q14 32 4 40q0 1 -2 2q-3 2 -2 4q2 1 6 1q24 -17 29 -30q0 -4 -6 -7q-6 -4 -8 -8q-1 -2 -6 -11q-43 -74 -61 -99q86 9 129 15q-14 26 -37 52q61 -35 70 -74q0 -12 -8 -13q-9 -1 -14 10q-3 11 -8 21q-29 -9 -90 -19q-39 -6 -46 -10
l-1 -2q-4 -5 -10 -5q-35 23 -32 37z" />
    <glyph glyph-name="uni30E1" unicode="&#x30e1;" 
d="M43 -12h-3q44 26 103 98q-8 9 -27 25q-6 5 -9 7h2q21 -6 42 -20q38 49 40 71q0 7 -5 12q-3 2 -3 4q12 -1 25 -15q12 -13 6 -20q0 -3 -4 -3q-7 0 -11 -10q-6 -10 -24 -36q-6 -9 -9 -13q25 -22 25 -38q1 -10 -6 -8q-8 2 -16 15q-7 8 -15 17q-56 -63 -111 -86z" />
    <glyph glyph-name="uni30E2" unicode="&#x30e2;" 
d="M54 169q10 -5 25 -5q48 2 82 11q5 5 11 5q21 -1 24 -11q1 -7 -18 -7q-13 0 -49 -7q-37 -7 -50 -7q-20 6 -25 21zM112 104v27q0 5 -7 11q-2 2 -2 3q15 7 32 -17q0 -3 -4 -7q-7 -8 -7 -16v-8q42 6 53 8q12 0 24 5q19 1 27 -5q8 -10 -6 -13q-3 0 -10 1q-10 1 -15 1
q-30 -1 -73 -8v-45q0 -29 37 -29h10q11 0 32 4q4 1 5 1q27 -2 17 -15q-7 -6 -27 -6h-18q-72 -3 -69 55v9v24q-33 -5 -46 -11q-6 -2 -12 -2q-10 1 -23 14q-9 11 -3 16q9 -13 24 -14q6 0 46 6q10 1 15 2v9z" />
    <glyph glyph-name="uni30E3" unicode="&#x30e3;" 
d="M79 146v2q5 4 20 0q14 -4 15 -10q0 -1 -1 -2q-3 -6 -2 -10q0 -1 1 -4q2 -10 4 -17q54 14 73 18q1 0 2 1q4 4 5 2q28 -16 21 -29q-1 -3 -6 -3q-2 -1 -3 -1q-6 0 -40 -19q-2 -1 -3 -1h-3q21 19 37 37l-2 3q-44 -6 -79 -15q18 -66 30 -93q3 -10 -2 -13q-8 -4 -12 4
q-13 46 -25 99q-26 -7 -41 -15q-1 0 -3 -2q-8 -4 -12 -1q-16 10 -16 17q4 -2 14 -4h2q16 2 54 13q-1 4 -3 11q-2 10 -3 11q-4 18 -22 21z" />
    <glyph glyph-name="uni30E4" unicode="&#x30e4;" 
d="M173 81h-3q49 39 50 56h-2q-46 -9 -103 -24q7 -24 25 -76q17 -49 16 -53q1 -10 -8 -9q-4 0 -7 2q-5 4 -7 14q-2 14 -22 93q-5 18 -7 26q-40 -10 -51 -18q-8 -8 -14 -8q-25 6 -30 26q1 0 3 -2q9 -6 17 -5q5 1 50 12q14 4 22 6q-4 16 -7 24q-5 25 -21 29q-5 2 -8 3
q1 7 19 4q25 -6 27 -13q0 -2 -2 -7q-1 -3 -1 -4q0 -8 3 -27q1 -4 1 -6q45 13 95 22q1 0 2 2q2 2 4 2q13 -1 27 -18q11 -15 2 -22q-2 0 -5 2q-1 1 -2 1q-3 0 -19 -9q-25 -15 -44 -23z" />
    <glyph glyph-name="uni30E5" unicode="&#x30e5;" 
d="M151 113q-15 1 -50 -4h-5q-4 -1 -6 -1q-18 8 -13 18q4 -7 11 -7q11 0 63 4q1 0 2 1q3 2 4 2q13 -4 16 -14q0 -4 -7 -8q-10 -27 -21 -58h3h26q21 -1 25 -1q3 1 6 1q10 0 15 -9q3 -9 -7 -9q-1 0 -5 1q-30 10 -68 10q-50 0 -86 -14q-15 10 -17 24q2 0 7 -3q5 -5 9 -5
q6 0 30 2q36 2 53 3q4 15 10 43q3 16 5 24z" />
    <glyph glyph-name="uni30E6" unicode="&#x30e6;" 
d="M11 52l2 1q7 -13 18 -12q1 0 13 1q61 6 95 7q14 57 18 86q-49 -2 -70 -5q-1 0 -3 -2q-3 -2 -5 -2q-16 3 -21 24q2 0 5 -2q8 -7 17 -7q63 3 75 6q6 6 10 6q16 -7 18 -21q0 -2 -3 -4q-4 -3 -4 -4q-11 -29 -26 -75h4q27 0 54 -2q5 2 11 2q16 1 24 -8q7 -13 -7 -14q-1 0 -7 2
q-34 9 -73 9q-86 -3 -107 -12q-1 -1 -4 -3q-4 -3 -7 -3q-24 9 -27 32z" />
    <glyph glyph-name="uni30E7" unicode="&#x30e7;" 
d="M169 22h-37q-24 0 -37 -6q-3 -2 -6 -2q-5 0 -17 14q-3 4 -5 6v3q10 -9 22 -9q15 0 45 4q15 1 22 2q5 14 9 44v3q-31 -2 -61 -8q-2 0 -7 -1t-7 -1q-13 3 -18 15q8 -5 15 -5q5 0 35 4q33 3 43 4l1 1q5 23 5 40h-10q-23 -1 -60 -9q-6 -1 -12 -3q-14 3 -20 19q2 0 6 -2
q6 -4 12 -4q12 0 77 7q1 0 3 2q2 3 4 2q17 -7 18 -18q0 -2 -2 -3q-2 -2 -2 -5q0 -1 -3 -17q-10 -49 -13 -63q7 -5 7 -9q0 -5 -7 -5z" />
    <glyph glyph-name="uni30E8" unicode="&#x30e8;" 
d="M46 36l2 1q12 -16 28 -16q1 0 24 1q45 3 48 3t11 1h8h1q2 1 3 1q3 18 7 60q-10 1 -27 1q-26 0 -65 -8q-9 -2 -10 -2q-15 7 -21 24l2 1q6 -8 16 -9q14 0 48 3q39 4 57 4h1v4q4 36 4 49q0 2 -1 2q-11 -1 -34 -2q-42 0 -63 -6q-1 0 -4 -1q-5 -2 -9 -2q-20 10 -22 26l2 1
q10 -10 26 -10q79 2 100 5q1 0 2 1q6 2 8 1q16 -4 22 -23q0 -2 -3 -6q-3 -5 -4 -8q0 -3 -1 -8q-7 -45 -19 -98q12 -10 1 -14q-1 0 -8 1q-15 1 -23 1q-24 0 -64 -6q-2 0 -5 -1q-7 -2 -10 -2q-24 10 -28 31z" />
    <glyph glyph-name="uni30E9" unicode="&#x30e9;" 
d="M61 190q2 0 8 -2q16 -7 30 -7q21 0 55 9q16 4 21 4q19 0 20 -13q1 -7 -21 -7q-19 0 -58 -5q-16 -2 -19 -2q-24 4 -36 23zM37 129l2 1q7 -8 19 -8q89 6 127 15q1 0 2 1q2 2 5 2q4 0 10 -5q3 -2 5 -3q11 -7 12 -13v-2q-1 -4 -10 -6q-3 -1 -4 -2q-57 -110 -136 -136
q85 58 120 146q0 1 -1 3v1q-85 -9 -111 -14q-2 0 -6 -3q-6 -4 -9 -4q-22 14 -25 27z" />
    <glyph glyph-name="uni30EA" unicode="&#x30ea;" 
d="M93 116v-45q0 -18 -6 -19q-8 3 -9 27q0 1 2 13v72q0 7 -7 19q-3 5 -3 7q22 -8 27 -35q0 -2 -1 -13q-3 -21 -3 -26zM181 168v-57q-1 -110 -64 -138q51 50 52 145v40q1 31 -20 36q9 13 37 -15q1 -4 -2 -6t-3 -5z" />
    <glyph glyph-name="uni30EB" unicode="&#x30eb;" 
d="M140 131v-101q44 13 112 75v-1q-32 -52 -104 -97q-1 0 -3 -4q-2 -5 -4 -5q-13 7 -21 28q0 1 2 3l4 8q1 13 1 41v65q0 10 -10 20q-4 4 -4 5q23 0 35 -21q0 -2 -3 -5q-5 -4 -5 -11zM6 -10h-2q32 33 53 98q17 55 -3 65l2 3q24 -6 30 -17q0 -2 -2 -4q-2 -1 -3 -2
q-13 -97 -75 -143z" />
    <glyph glyph-name="uni30EC" unicode="&#x30ec;" 
d="M36 162v3q25 5 44 -25q0 -2 -3 -5q-6 -6 -6 -12v-97h2q74 29 147 95v-2q-65 -75 -138 -111q-1 0 -4 -5q-4 -7 -6 -7q-12 5 -22 24q0 3 4 8t4 8v83q0 36 -22 43z" />
    <glyph glyph-name="uni30ED" unicode="&#x30ed;" 
d="M177 44h3q14 68 15 91q0 2 -3 2h-30q-10 0 -39 -4q-27 -3 -36 -3t-12 1h-1q0 -1 -1 0q1 -13 5 -50l4 -44l42 3q36 3 53 4zM72 140h2q3 0 26 3q62 6 89 7q1 0 3 2q3 2 5 1q20 -8 22 -28q0 -2 -4 -6q-3 -2 -3 -3t-3 -11q-15 -50 -19 -63q17 -10 5 -17q-2 0 -8 1
q-19 3 -43 3q-9 1 -61 -2v-6q0 -16 -8 -10q-8 7 -11 26q0 2 1 9t1 10q-5 48 -10 71q-6 17 -19 21q11 6 33 -8h2z" />
    <glyph glyph-name="uni30EE" unicode="&#x30ee;" 
d="M175 145l7 5q2 2 3 0q8 -5 17 -17v-3q-1 -2 -6 -4q-4 -2 -5 -4q-29 -86 -93 -117h-4q70 53 85 132q-57 -1 -104 -4q0 -20 2 -49v-4q1 -9 -5 -9q-3 1 -10 18l1 3q2 10 2 13q0 28 -11 43q4 1 10 -3t9 -4q5 0 26 1q47 3 76 3z" />
    </font>
</defs>
</svg>
